Диво-парк / Wonder Park (2019) 1080p Ukr/Eng | Sub Eng

Нові коментарі

Нова тема   Відповісти
Автор Повідомлення
Anonymous 







2019-06-20 08:58  
Диво-парк / Wonder Park (2019) 1080p Ukr/Eng | Sub Eng


Альтернативний постер

«Відірвись на повну»



Жанр: комедія, мультфільм, пригоди, сімейний, фентезі
Країна: Іспанія, США



Кінокомпанія: Paramount Animation, Midnight Radio, Nickelodeon Movies
Режисер: Джош Аппелбаум, Андре Немец, Роберт Гордон
Актори: Дженніфер Гарнер, Кен Хадсон Кемпбелл, Кенан Томпсон, Міла Куніс, Джон Олівер, Кен Жонг, Норберт Лео Батц, Меттью Бродерік

Сюжет:
Винахідлива Джун створила модель особливого місця, де панує справжня магія, – неймовірного парку атракціонів. Та дівчинка навіть не здогадується, що Диво-парк існує не тільки в її уяві – на неї чекають неймовірні пригоди, нові друзі та важлива місія.


Тривалість: 01:25:16
Якість: 1080p

Відео:
кодек:
розмір кадру: 1920x800
бітрейт: 12800 кб/с

Аудіо # 1:
мова: українська
переклад: професійний дубльований
кодек: 5.1
бітрейт: 384 кб/с

Аудіо # 2:
мова: українська
переклад: професійний дубльований
кодек: 2.0
бітрейт: 192 кб/с

Аудіо # 3:
мова: англійська
переклад: оригінал
кодек: 5.1
бітрейт: 640 кб/с

Субтитри (Forced):
мова: українська
тип: програмні (м'які)
формат: *.srt

Субтитри (Full):
мова: англійська
тип: програмні (м'які)
формат: *.srt
Info
Код:
General
Complete name                            : WONDER PARK (2019) 1080p [Ukr_Eng] [ViDeO_Hurtom].
Format                                   :
Format version                           : Version 4
File size                                : 8.34 GiB
Duration                                 : 1 h 25 min
Overall bit rate                         : 14.0 Mb/s
Movie name                               : WONDER PARK (2019) 1080p [ukr,eng] [ViDeO_Hurtom]
Encoded date                             : UTC 2019-07-14 19:16:56
Writing application                      : v30.1.0 ('Forever And More') 64-bit
Writing library                          : libebml v1.3.6 + v1.4.9

Video
ID                                       : 1
Format                                   : AVC
Format/Info                              : Advanced Video Codec
Format profile                           : [email protected]
Format settings                          : CABAC / 5 Ref Frames
Format settings, CABAC                   : Yes
Format settings, RefFrames               : 5 frames
Codec ID                                 : V_MPEG4/ISO/AVC
Duration                                 : 1 h 25 min
Bit rate                                 : 12.8 Mb/s
Width                                    : 1 920 pixels
Height                                   : 800 pixels
Display aspect ratio                     : 2.40:1
Frame rate mode                          : Constant
Frame rate                               : 23.976 (24000/1001) FPS
Color space                              : YUV
Chroma subsampling                       : 4:2:0
Bit depth                                : 8 bits
Scan type                                : Progressive
Bits/(Pixel*Frame)                       : 0.347
Stream size                              : 7.61 GiB (91%)
Title                                    : MTeam
Writing library                          : core 157 r2938 2b00a84 [email protected] Mod
Encoding settings                        : cabac=1 / ref=5 / deblock=1:-3:-3 / analyse=0x3:0x133 / me=umh / subme=10 / psy=1 / psy_rd=1.05:0.00 / mixed_ref=1 / me_range=32 / chroma_me=1 / trellis=2 / 8x8dct=1 / cqm=0 / deadzone=21,11 / fast_pskip=0 / chroma_qp_offset=-2 / threads=12 / lookahead_threads=2 / sliced_threads=0 / nr=0 / decimate=0 / interlaced=0 / bluray_compat=0 / constrained_intra=0 / bframes=8 / b_pyramid=2 / b_adapt=2 / b_bias=0 / direct=3 / weightb=1 / open_gop=0 / weightp=2 / keyint=250 / keyint_min=24 / scenecut=40 / intra_refresh=0 / rc_lookahead=250 / rc=crf / mbtree=0 / crf=16.1 / qcomp=0.60 / qpmin=0 / qpmax=69 / qpstep=4 / vbv_maxrate=62500 / vbv_bufsize=78125 / crf_max=0.0 / nal_hrd=none / filler=0 / ip_ratio=1.30 / pb_ratio=1.20 / aq=3:0.80
Language                                 : English
Default                                  : Yes
Forced                                   : No
Color range                              : Limited
Color primaries                          : BT.709
Matrix coefficients                      : BT.709

Audio #1
ID                                       : 2
Format                                   : AC-3
Format/Info                              : Audio Coding 3
Commercial name                          : Dolby Digital
Codec ID                                 : A_AC3
Duration                                 : 1 h 25 min
Bit rate mode                            : Constant
Bit rate                                 : 384 kb/s
Channel(s)                               : 6 channels
Channel layout                           : L R C LFE Ls Rs
Sampling rate                            : 48.0 kHz
Frame rate                               : 31.250 FPS (1536 SPF)
Bit depth                                : 16 bits
Compression mode                         : Lossy
Stream size                              : 234 MiB (3%)
Title                                    : , 6 ch, 384 Кбт/с
Language                                 : Ukrainian
Service kind                             : Complete Main
Default                                  : Yes
Forced                                   : No

Audio #2
ID                                       : 3
Format                                   : AC-3
Format/Info                              : Audio Coding 3
Commercial name                          : Dolby Digital
Codec ID                                 : A_AC3
Duration                                 : 1 h 25 min
Bit rate mode                            : Constant
Bit rate                                 : 192 kb/s
Channel(s)                               : 2 channels
Channel layout                           : L R
Sampling rate                            : 48.0 kHz
Frame rate                               : 31.250 FPS (1536 SPF)
Bit depth                                : 16 bits
Compression mode                         : Lossy
Stream size                              : 117 MiB (1%)
Title                                    : , 2 ch, 192 Кбт/с
Language                                 : Ukrainian
Service kind                             : Complete Main
Default                                  : No
Forced                                   : No

Audio #3
ID                                       : 4
Format                                   : AC-3
Format/Info                              : Audio Coding 3
Commercial name                          : Dolby Digital
Codec ID                                 : A_AC3
Duration                                 : 1 h 25 min
Bit rate mode                            : Constant
Bit rate                                 : 640 kb/s
Channel(s)                               : 6 channels
Channel layout                           : L R C LFE Ls Rs
Sampling rate                            : 48.0 kHz
Frame rate                               : 31.250 FPS (1536 SPF)
Bit depth                                : 16 bits
Compression mode                         : Lossy
Stream size                              : 390 MiB (5%)
Title                                    : , 6 ch, 640 Кбт/с
Language                                 : English
Service kind                             : Complete Main
Default                                  : No
Forced                                   : No

Text #1
ID                                       : 5
Format                                   : UTF-8
Codec ID                                 : S_TEXT/UTF8
Codec ID/Info                            : UTF-8 Plain Text
Duration                                 : 1 h 11 min
Bit rate                                 : 0 b/s
Count of elements                        : 5
Stream size                              : 116 Bytes (0%)
Title                                    : Forced
Language                                 : Ukrainian
Default                                  : Yes
Forced                                   : No

Text #2
ID                                       : 6
Format                                   : UTF-8
Codec ID                                 : S_TEXT/UTF8
Codec ID/Info                            : UTF-8 Plain Text
Duration                                 : 1 h 17 min
Bit rate                                 : 64 b/s
Count of elements                        : 1105
Stream size                              : 36.6 KiB (0%)
Title                                    : Full
Language                                 : English
Default                                  : No
Forced                                   : No

Menu
00:00:00.000                             : en:Chapter 01
00:06:34.811                             : en:Chapter 02
00:12:05.475                             : en:Chapter 03
00:20:22.847                             : en:Chapter 04
00:25:49.590                             : en:Chapter 05
00:33:03.648                             : en:Chapter 06
00:39:14.185                             : en:Chapter 07
00:47:39.648                             : en:Chapter 08
00:54:39.443                             : en:Chapter 09
01:00:32.462                             : en:Chapter 10
01:06:17.807                             : en:Chapter 11
01:13:12.054                             : en:Chapter 12
01:17:49.748                             : en:Chapter 13
Скріншоти



Джерело:
Особиста оцінка: 9 - давно не бачив настільки якісне кіно


 Трекер:    Зареєстрований   

Завантажити / скачати мультфільм українською



відео для новачків



 Зареєстрований:   2019-07-14 22:07
 Розмір:   8.34 GB 
 Оцінка мультфільму:   9.6/10 (Голосів: 25)
   
Інші релізи
   Диво-парк / Wonder Park (2019) antik_2008  41 / 1   1.47 GB   2019-07-15 12:22 
   Диво-парк / Wonder Park (2019) Remux 1080p Ukr/Eng | Sub Eng antik_2008  13 / 0   19.34 GB   2019-07-15 09:56 
   Диво-парк / Wonder Park (2019) 1080p H.265 Ukr/Eng | Sub Eng -Star-Lord-  13 / 0   5.24 GB   2019-07-15 08:13 
   Диво-парк / Wonder Park (2019) AVC Ukr/Eng | Sub Eng 11FrYkT  26 / 0   2.28 GB   2019-07-14 07:45 
   Диво-парк / Wonder Park (2019) 720p Ukr/Eng | Sub Eng 11FrYkT  19 / 0   3.49 GB   2019-07-14 07:43 
vovang6 
Поважний учасник


З нами з: 27.08.12
Востаннє: 29.02.20
Повідомлень: 210

2019-06-20 14:46  
Ходив в кiнотеатр, слабенький мульт. 6/10.
banan.gominid 
Новенький


З нами з: 30.06.13
Востаннє: 29.02.20
Повідомлень: 6

2019-06-20 17:06  
Таке...
sergiyko.5 
VIP


З нами з: 25.02.16
Востаннє: 29.02.20
Повідомлень: 2960

2019-06-20 17:10  
Є мультики які подобаються дітям і дорослим, є - тільки дітям. Можливо це другий варіант.
helpmesha 
Частий відвідувач


З нами з: 10.07.16
Востаннє: 28.02.20
Повідомлень: 39

2019-06-20 19:35  
Я як дорослий не зміг таке до кінця додивитись, хоч я і люблю мультики. І навіть моїм синам (7 та 8 років) мульт теж не сподобався, вони також до кінця не додивились
5/10

VINRARUS 
Поважний учасник


З нами з: 16.11.11
Востаннє: 28.02.20
Повідомлень: 207

2019-06-23 12:25  
Та нормальний мультик з простою драмою і кумедними ворогами.

ПС: чому українська мова казаха Ласточкіна набагато приємніша за українську мову українця з народження Зеленьку-клоуна?

DDBj 
VIP


З нами з: 09.01.12
Востаннє: 29.02.20
Повідомлень: 685

2019-06-23 14:54  
Анімаційний фільм приємно розбавляє серіялізований кінематограф самобутнім сюжетом.

VINRARUS написано:
українця з народження Зеленьку-клоуна?

Окрім, як народитися, треба інтеґруватися в культуру, хоч би робити спроби стати її частиною. Бо інакше й свиню мого діда можна назвати українкою з народження, а толку?

Anonymous 







2019-06-24 15:15  
Реліз оновлено на кращу якість.

VINRARUS 
Поважний учасник


З нами з: 16.11.11
Востаннє: 28.02.20
Повідомлень: 207

2019-06-24 16:00  
DDBj написано:
Окрім, як народитися, треба інтеґруватися в культуру, хоч би робити спроби стати її частиною.

От мене і дивує як іноземці швидко інтегруються, а деякі українці (навіть україномовні, навіть із села) продовжують бути частиною совка.
DDBj написано:
Бо інакше й свиню мого діда можна назвати українкою з народження, а толку?

На вибори йде? Wide grin

Anonymous 







2019-07-14 22:08  
Реліз оновлено

Додав

Аудіо # 1:
мова: українська
переклад: професійний дубльований
кодек: 5.1
бітрейт: 384 кб/с

Ваш часовий пояс: GMT + 2 Години

Нова тема   Відповісти