Диво-парк / Wonder Park (2019) Remux 1080p Ukr/Eng | Sub Eng

Нові коментарі

Нова тема   Відповісти
Автор Повідомлення
Anonymous 







2019-06-20 06:05  
Диво-парк / Wonder Park (2019) Remux 1080p Ukr/Eng | Sub Eng


Альтернативний постер

«Відірвись на повну»



Жанр: комедія, мультфільм, пригоди, сімейний, фентезі
Країна: Іспанія, США





Кінокомпанія: Paramount Animation, Midnight Radio, Nickelodeon Movies
Режисер: Джош Аппелбаум, Андре Немец, Роберт Гордон
Актори: Дженніфер Гарнер, Кен Хадсон Кемпбелл, Кенан Томпсон, Міла Куніс, Джон Олівер, Кен Жонг, Норберт Лео Батц, Меттью Бродерік

Сюжет:
Винахідлива Джун створила модель особливого місця, де панує справжня магія, – неймовірного парку атракціонів. Та дівчинка навіть не здогадується, що Диво-парк існує не тільки в її уяві – на неї чекають неймовірні пригоди, нові друзі та важлива місія.


Тривалість: 01:25:16
Якість: Remux

Відео:
кодек:
розмір кадру: 1920x1080
бітрейт: 27.0 мб/с

Аудіо # 1:
мова: українська
переклад: професійний дубльований
кодек: 5.1
бітрейт: 384 кб/с

Аудіо # 2:
мова: англійська
переклад: оригінал
кодек: 5.1
бітрейт: 640 кб/с

Аудіо # 3:
мова: англійська
переклад: оригінал
кодек: TrueHD 7.1
бітрейт: 4327 кб/с

Субтитри (Forced):
мова: українська
тип: програмні (м'які)
формат: *.PGS

Субтитри (Full-length, SDH):
мова: англійська
тип: програмні (м'які)
формат: *.PGS
Info
Код:
General
Complete name                            : WONDER PARK (2019) Blu-Ray Remux [Ukr_Eng] [ViDeO_Hurtom].
Format                                   :
Format version                           : Version 4
File size                                : 19.3 GiB
Duration                                 : 1 h 25 min
Overall bit rate mode                    : Variable
Overall bit rate                         : 32.5 Mb/s
Movie name                               : WONDER PARK (2019) Blu-Ray Remux [ukr,eng] [ViDeO_Hurtom]
Encoded date                             : UTC 2019-07-15 07:21:16
Writing application                      : v30.1.0 ('Forever And More') 64-bit
Writing library                          : libebml v1.3.6 + v1.4.9

Video
ID                                       : 1
Format                                   : AVC
Format/Info                              : Advanced Video Codec
Format profile                           : [email protected]
Format settings                          : CABAC / 4 Ref Frames
Format settings, CABAC                   : Yes
Format settings, RefFrames               : 4 frames
Codec ID                                 : V_MPEG4/ISO/AVC
Duration                                 : 1 h 25 min
Bit rate mode                            : Variable
Bit rate                                 : 27.0 Mb/s
Maximum bit rate                         : 29.0 Mb/s
Width                                    : 1 920 pixels
Height                                   : 1 080 pixels
Display aspect ratio                     : 16:9
Frame rate mode                          : Constant
Frame rate                               : 23.976 (24000/1001) FPS
Color space                              : YUV
Chroma subsampling                       : 4:2:0
Bit depth                                : 8 bits
Scan type                                : Progressive
Bits/(Pixel*Frame)                       : 0.543
Stream size                              : 16.1 GiB (83%)
Default                                  : Yes
Forced                                   : No

Audio #1
ID                                       : 2
Format                                   : AC-3
Format/Info                              : Audio Coding 3
Commercial name                          : Dolby Digital
Codec ID                                 : A_AC3
Duration                                 : 1 h 25 min
Bit rate mode                            : Constant
Bit rate                                 : 384 kb/s
Channel(s)                               : 6 channels
Channel layout                           : L R C LFE Ls Rs
Sampling rate                            : 48.0 kHz
Frame rate                               : 31.250 FPS (1536 SPF)
Bit depth                                : 16 bits
Compression mode                         : Lossy
Stream size                              : 234 MiB (1%)
Title                                    : , 6 ch, 384 Кбт/с
Language                                 : Ukrainian
Service kind                             : Complete Main
Default                                  : Yes
Forced                                   : No

Audio #2
ID                                       : 3
Format                                   : AC-3
Format/Info                              : Audio Coding 3
Commercial name                          : Dolby Digital
Codec ID                                 : A_AC3
Duration                                 : 1 h 25 min
Bit rate mode                            : Constant
Bit rate                                 : 640 kb/s
Channel(s)                               : 6 channels
Channel layout                           : L R C LFE Ls Rs
Sampling rate                            : 48.0 kHz
Frame rate                               : 31.250 FPS (1536 SPF)
Bit depth                                : 16 bits
Compression mode                         : Lossy
Stream size                              : 390 MiB (2%)
Title                                    : , 6 ch, 640 Кбт/с
Language                                 : English
Service kind                             : Complete Main
Default                                  : No
Forced                                   : No

Audio #3
ID                                       : 4
Format                                   : MLP FBA
Format/Info                              : Meridian Lossless Packing FBA
Commercial name                          : Dolby TrueHD
Codec ID                                 : A_TRUEHD
Duration                                 : 1 h 25 min
Bit rate mode                            : Variable
Bit rate                                 : 4 327 kb/s
Maximum bit rate                         : 6 264 kb/s
Channel(s)                               : 8 channels
Channel layout                           : L R C LFE Ls Rs Lb Rb
Sampling rate                            : 48.0 kHz
Frame rate                               : 1 200.000 FPS (40 SPF)
Compression mode                         : Lossless
Stream size                              : 2.58 GiB (13%)
Title                                    : TrueHD, 8 ch, 4327 Кбт/с
Language                                 : English
Default                                  : No
Forced                                   : No

Text #1
ID                                       : 5
Format                                   : PGS
Muxing mode                              : zlib
Codec ID                                 : S_HDMV/PGS
Codec ID/Info                            : Picture based subtitle format used on BDs/HD-DVDs
Duration                                 : 1 h 11 min
Bit rate                                 : 113 b/s
Count of elements                        : 10
Stream size                              : 59.3 KiB (0%)
Title                                    : Forced
Language                                 : Ukrainian
Default                                  : Yes
Forced                                   : No

Text #2
ID                                       : 6
Format                                   : PGS
Muxing mode                              : zlib
Codec ID                                 : S_HDMV/PGS
Codec ID/Info                            : Picture based subtitle format used on BDs/HD-DVDs
Duration                                 : 1 h 17 min
Bit rate                                 : 41.1 kb/s
Count of elements                        : 2210
Stream size                              : 22.7 MiB (0%)
Title                                    : Full-length
Language                                 : English
Default                                  : No
Forced                                   : No

Text #3
ID                                       : 7
Format                                   : PGS
Muxing mode                              : zlib
Codec ID                                 : S_HDMV/PGS
Codec ID/Info                            : Picture based subtitle format used on BDs/HD-DVDs
Duration                                 : 1 h 19 min
Bit rate                                 : 51.8 kb/s
Count of elements                        : 3010
Stream size                              : 29.3 MiB (0%)
Title                                    : SDH
Language                                 : English
Default                                  : No
Forced                                   : No
Скріншоти


Джерело:
Особиста оцінка: 9 - давно не бачив настільки якісне кіно


Золотий реліз (завантажене не впливає на рейтинг)
 Трекер:    Зареєстрований   

Завантажити / скачати мультфільм українською



відео для новачків



 Зареєстрований:   2019-07-15 09:56
 Розмір:   19.34 GB 
 Оцінка мультфільму:   9.7/10 (Голосів: 22)
   
Інші релізи
   Диво-парк / Wonder Park (2019) antik_2008  15 / 0   1.47 GB   2019-07-15 12:22 
   Диво-парк / Wonder Park (2019) 1080p H.265 Ukr/Eng | Sub Eng -Star-Lord-  7 / 0   5.24 GB   2019-07-15 08:13 
   Диво-парк / Wonder Park (2019) 1080p Ukr/Eng | Sub Eng antik_2008  1 / 0   8.34 GB   2019-07-14 22:07 
   Диво-парк / Wonder Park (2019) AVC Ukr/Eng | Sub Eng 11FrYkT  9 / 0   2.28 GB   2019-07-14 07:45 
   Диво-парк / Wonder Park (2019) 720p Ukr/Eng | Sub Eng 11FrYkT  5 / 0   3.49 GB   2019-07-14 07:43 
Anonymous 







2019-07-03 21:28  
Особиста оцінка: 9 - давно не бачив настільки якісне кіно
Anonymous 







2019-07-15 09:59  
Торент оновлено.

Замінив аудіо на 5.1 | 384

armogun 
Попереджень: 1
Попереджень: 1 


З нами з: 04.05.13
Востаннє: 17.02.21
Повідомлень: 707

2019-08-05 12:52  
Шикарний мульт 10\10
ngxwinger 
Свій


З нами з: 19.01.14
Востаннє: 27.02.21
Повідомлень: 72

2019-08-19 22:18  
Нічого оригінального тут немає, гарна графіка, приємний британський акцент у їжака - це все, що сподобалося за великим рахунком, 7 за 10 щонайбільше.
takispravi 
Свій


З нами з: 24.10.13
Востаннє: 17.02.21
Повідомлень: 78

2020-01-08 11:12  
дуже чуттєвий та приємний мультфільм. рекомендую до перегляду
Ваш часовий пояс: GMT + 2 Години

Нова тема   Відповісти