Саботаж / Диверсант / Saboteur (1942) Remux 1080p Ukr/Eng | Sub Eng

Нові коментарі

Нова тема   Відповісти
Автор Повідомлення
MakRA 
VIP


З нами з: 11.11.18
Востаннє: 18.09.20
Повідомлень: 1111

2019-06-19 22:27  
Саботаж / Диверсант / Saboteur (1942) Remux 1080p Ukr/Eng | Sub Eng

Саботаж / Диверсант / Saboteur (1942) Remux 1080p Ukr/Eng | Sub Eng


Альтернативні обкладинки:

Саботаж / Диверсант / Saboteur (1942) Remux 1080p Ukr/Eng | Sub Eng


Альтернативні постери:




Жанр: трилер, воєнний
Країна: США



Кінокомпанія: Frank Lloyd Productions, Universal Pictures
Режисер: Альфред Гічкок [Alfred Hitchcock]
Актори: Роберт Каммінгс [Robert Cummings], Прісцилла Лейн [Priscilla Lane], Отто Крюгер [Otto Kruger], Алан Бакстер [Alan Baxter], Клем Біванс []Clem Bevans, Норман Ллойд [Norman Lloyd], Альма Крюгер [Alma Kruger], Вон Глейсер [Vaughan Glaser], Дороті Петерсон [Dorothy Peterson], Йєн Вульф [ Ian Wolfe], Мюррей Елпер [Murray Alper].

Сюжет:
Працівника авіазаводу Баррі Кейна випадково звинувачують у початку пожежі на виробництві. Йому висувають звинувачення в диверсії та загибелі людини, якою став його найкращий друг. Кейн стає утікачем, щоб довести свою непричетність до цього...

Чудовий гічкоківський фільм, знятий у жанрі триллеру, про людину, помилкового звинувачену в диверсії, яка перетинає половину країни, щоб знайти справжні злочинців.

Цікаве про фільм:

-Виконавцями головних ролей Гічкок бачив Гарі Купера та Барбару Стенвік, але в кінцевому результаті у фільмі знялися Роберт Каммінгс та Прісцилла Лейн.
-Гічкок з'являється в епізоді-камео, зігравши людину біля кіоску з газетами.


Тривалість: 01:48:48
Якість: Remux 1080p [GER Transfer]
Відео:
кодек:
розмір кадру: 1920 х 1080
бітрейт: 30,9 Мб/с

Аудіо # 1:
мова: українська
переклад: багатоголосий закадровий | студія "Так Треба Продакшн"
кодек: 2.0
бітрейт: 192 кб/с
Про озвучення:
Ролі озвучували:Володимир Терещук, Дмитро Терещук, Людмила Чиншева та ще один жіночий .
Аудіо # 2:
мова: англійська
переклад: оригінал
кодек: -HD MA 2.0
бітрейт: 1780 кб/с

Субтитри:
мова: англійська
тип: пререндерні
формат: *.pgs
Info
General
Unique ID : 35871196637913789077902416726890869774 (0x1AFC8A8A6B17A28A64C326B352E7740E)
Complete name : F:\+Режисер Альфред Гічкок [Alfred Hitchcock]\Saboteur (1942) Remux 1080p UkrEng Sub Eng [Hurtom].
Format :
Format version : Version 4 / Version 2
File size : 25.0 GiB
Duration : 1 h 48 min
Overall bit rate mode : Variable
Overall bit rate : 32.8 Mb/s
Movie name : Саботаж / Диверсант / Saboteur (1942) Remux 1080p Ukr/Eng | Sub Eng [Hurtom]
Encoded date : UTC 2019-06-19 17:15:07
Writing application : v25.0.0 ('Prog Noir') 64-bit
Writing library : libebml v1.3.6 + v1.4.9

Video
ID : 1
Format : AVC
Format/Info : Advanced Video Codec
Format profile : [email protected]
Format settings, CABAC : Yes
Format settings, RefFrames : 4 frames
Codec ID : V_MPEG4/ISO/AVC
Duration : 1 h 48 min
Bit rate mode : Variable
Bit rate : 30.9 Mb/s
Maximum bit rate : 35.0 Mb/s
Width : 1 920 pixels
Height : 1 080 pixels
Display aspect ratio : 16:9
Frame rate mode : Constant
Frame rate : 23.976 (24000/1001) FPS
Color space : YUV
Chroma subsampling : 4:2:0
Bit depth : 8 bits
Scan type : Progressive
Bits/(Pixel*Frame) : 0.621
Stream size : 23.5 GiB (94%)
Title : Saboteur (1942) Remux 1080p Ukr/Eng | Sub Eng [Hurtom]
Language : Ukrainian
Default : Yes
Forced : Yes

Audio #1
ID : 2
Format : AC-3
Format/Info : Audio Coding 3
Format settings, Endianness : Big
Codec ID : A_AC3
Duration : 1 h 48 min
Bit rate mode : Constant
Bit rate : 192 kb/s
Channel(s) : 2 channels
Channel positions : Front: L R
Sampling rate : 48.0 kHz
Frame rate : 31.250 FPS (1536 SPF)
Bit depth : 16 bits
Compression mode : Lossy
Stream size : 149 MiB (1%)
Title : MVO [ICTV] 2.0
Language : Ukrainian
Service kind : Complete Main
Default : Yes
Forced : Yes

Audio #2
ID : 3
Format :
Format/Info : Digital Theater Systems
Format profile : MA / Core
Mode : 16
Format settings, Endianness : Big
Codec ID : A_DTS
Duration : 1 h 48 min
Bit rate mode : Variable / Constant
Bit rate : 1 780 kb/s / 1 509 kb/s
Channel(s) : 2 channels
Channel positions : Front: L R
Sampling rate : 48.0 kHz
Frame rate : 93.750 FPS (512 SPF)
Bit depth : 24 bits
Compression mode : Lossless / Lossy
Stream size : 1.35 GiB (5%)
Title : Original -HD MA 2.0
Language : English
Default : No
Forced : No

Text
ID : 4
Format : PGS
Muxing mode : zlib
Codec ID : S_HDMV/PGS
Codec ID/Info : Picture based subtitle format used on BDs/HD-DVDs
Duration : 1 h 46 min
Bit rate : 55.7 kb/s
Count of elements : 3563
Stream size : 42.4 MiB (0%)
Title : Eng
Language : English
Default : No
Forced : No
Скріншоти
Джерело: &
За доріжку від ICTV подяка п. rooster
Особиста оцінка: 10 - без зайвих вагань рекомендую всім!


Золотий реліз (завантажене не впливає на рейтинг)
 Трекер:    Зареєстрований   

Завантажити / скачати фільм українською



відео для новачків



 Зареєстрований:   2019-06-19 22:27
 Розмір:   24.96 GB 
 Оцінка фільму:   10/10 (Голосів: 7)
   
Інші релізи
Ваш часовий пояс: GMT + 2 Години

Нова тема   Відповісти