Протистояння / The One [Open Matte] (2001) 1080p 3xUkr/Eng | Sub Eng

Нові коментарі

Нова тема   Відповісти
Автор Повідомлення
Anonymous 







2019-06-19 18:22  
Протистояння / The One [Open Matte] (2001) 1080p 3xUkr/Eng | Sub Eng

Протистояння / The One [Open Matte] (2001) 1080p 3xUkr/Eng | Sub Eng


Жанр: фантастика, бойовик, трилер
Країна: США



Кінокомпанія: Revolution Studios
Режисер: Джеймс Вонг
Актори: Джет Лі, Джейсон Стетхем, Карла Гуджіно, Делрой Ліндо, Джеймс Моррісон, Ділан Бруно, Річард Стейнметц, Стів Ренкін, Таккер Смоллвуд, Харріет Сенсом Харріс

Сюжет:
Що робити, якщо твій світ валиться, коли в нього вторгається безжалісний прибулець з паралельних світів? Прагнучи стати надлюдиною, агент Міжпросторового Бюро Розслідувань Габріель Юло здійснює запаморочливе сафарі по паралельних світах, полюючи за своїми двійниками.
Сили його зростають з кожною новою жертвою, їх життєва енергія акумулюється в ньому, наділяючи його неймовірними здібностями. Ніхто не знає, що трапиться з тендітною рівновагою всесвітів, якщо Габрієль досягне своєї мети - знищити всіх двійників. Його мрія вже майже стає реальністю, коли на шляху Юло стає Гейб - поліцейський з Лос-Анджелеса ...


Тривалість: 01:27:17
Якість: 1080p [Open Matte]
Відео:
кодек:
розмір кадру: 1920x1080
бітрейт: 13000 кб/с

Аудіо # 1:
мова: українська
переклад: багатоголосий закадровий ,
кодек: 2.0
бітрейт: 192 кб/с

Аудіо # 2:
мова: українська
переклад: багатоголосий закадровий
кодек: 2.0
бітрейт: 192 кб/с

Аудіо # 3:
мова: українська
переклад: багатоголосий закадровий
кодек: 2.0
бітрейт: 192 кб/с

Аудіо # 4:
мова: англійська
переклад: оригінал
кодек: 5.1
бітрейт: 1509 кб/с

Субтитри:
мова: англійська
тип: програмні (м'які)
формат: *.srt
Info
General
Unique ID : 213691802979419931924491854326188691710 (0xA0C38B522FBD7BCF82530FF4618750FE)
Format :
Format version : Version 4
File size : 9.19 GiB
Duration : 1 h 27 min
Overall bit rate : 15.1 Mb/s
Encoded date : UTC 2019-06-19 16:12:52
Writing application : v6.1.0 ('Old Devil') built on Mar 4 2013 09:10:42
Writing library : libebml v1.3.0 + v1.4.0

Video
ID : 1
Format : AVC
Format/Info : Advanced Video Codec
Format profile : [email protected]
Format settings : CABAC / 4 Ref Frames
Format settings, CABAC : Yes
Format settings, RefFrames : 4 frames
Codec ID : V_MPEG4/ISO/AVC
Duration : 1 h 27 min
Bit rate : 13.0 Mb/s
Width : 1 920 pixels
Height : 1 080 pixels
Display aspect ratio : 16:9
Frame rate mode : Constant
Frame rate : 23.976 (24000/1001) FPS
Color space : YUV
Chroma subsampling : 4:2:0
Bit depth : 8 bits
Scan type : Progressive
Bits/(Pixel*Frame) : 0.261
Stream size : 7.74 GiB (84%)
Writing library : core 146 r2538 121396c
Encoding settings : cabac=1 / ref=4 / deblock=1:-2:-2 / analyse=0x3:0x133 / me=umh / subme=11 / psy=1 / psy_rd=1.00:0.00 / mixed_ref=1 / me_range=32 / chroma_me=1 / trellis=2 / 8x8dct=1 / cqm=0 / deadzone=21,11 / fast_pskip=0 / chroma_qp_offset=-2 / threads=12 / lookahead_threads=2 / sliced_threads=0 / nr=0 / decimate=0 / interlaced=0 / bluray_compat=0 / constrained_intra=0 / bframes=14 / b_pyramid=2 / b_adapt=2 / b_bias=0 / direct=3 / weightb=1 / open_gop=0 / weightp=2 / keyint=240 / keyint_min=24 / scenecut=40 / intra_refresh=0 / rc=2pass / mbtree=0 / bitrate=13000 / ratetol=1.0 / qcomp=0.60 / qpmin=0 / qpmax=69 / qpstep=4 / cplxblur=20.0 / qblur=0.5 / ip_ratio=1.40 / pb_ratio=1.30 / aq=3:0.80
Language : English
Default : No
Forced : No

Audio #1
ID : 2
Format : AC-3
Format/Info : Audio Coding 3
Commercial name : Dolby Digital
Codec ID : A_AC3
Duration : 1 h 27 min
Bit rate mode : Constant
Bit rate : 192 kb/s
Channel(s) : 2 channels
Channel layout : L R
Sampling rate : 48.0 kHz
Frame rate : 31.250 FPS (1536 SPF)
Bit depth : 16 bits
Compression mode : Lossy
Stream size : 120 MiB (1%)
Title : UKR (Новий, ТРК "Україна")
Language : Ukrainian
Service kind : Complete Main
Default : Yes
Forced : Yes

Audio #2
ID : 3
Format : AC-3
Format/Info : Audio Coding 3
Commercial name : Dolby Digital
Codec ID : A_AC3
Duration : 1 h 27 min
Bit rate mode : Constant
Bit rate : 192 kb/s
Channel(s) : 2 channels
Channel layout : L R
Sampling rate : 48.0 kHz
Frame rate : 31.250 FPS (1536 SPF)
Bit depth : 16 bits
Compression mode : Lossy
Stream size : 120 MiB (1%)
Title : UKR (ICTV)
Language : Ukrainian
Service kind : Complete Main
Default : No
Forced : No

Audio #3
ID : 4
Format : AC-3
Format/Info : Audio Coding 3
Commercial name : Dolby Digital
Codec ID : A_AC3
Duration : 1 h 27 min
Bit rate mode : Constant
Bit rate : 192 kb/s
Channel(s) : 2 channels
Channel layout : L R
Sampling rate : 48.0 kHz
Frame rate : 31.250 FPS (1536 SPF)
Bit depth : 16 bits
Compression mode : Lossy
Stream size : 120 MiB (1%)
Title : UKR (AMC)
Language : Ukrainian
Service kind : Complete Main
Default : No
Forced : No

Audio #4
ID : 5
Format :
Format/Info : Digital Theater Systems
Codec ID : A_DTS
Duration : 1 h 27 min
Bit rate mode : Constant
Bit rate : 1 509 kb/s
Channel(s) : 6 channels
Channel layout : C L R Ls Rs LFE
Sampling rate : 48.0 kHz
Frame rate : 93.750 FPS (512 SPF)
Bit depth : 16 bits
Compression mode : Lossy
Stream size : 942 MiB (10%)
Title : ENG
Language : English
Default : No
Forced : No

Text
ID : 6
Format : UTF-8
Codec ID : S_TEXT/UTF8
Codec ID/Info : UTF-8 Plain Text
Language : English
Default : No
Forced : No

Menu
00:00:00.000 : :Chapter 1
00:00:36.161 : :Chapter 2
00:11:15.216 : :Chapter 3
00:19:44.642 : :Chapter 4
00:30:01.091 : :Chapter 5
00:40:05.945 : :Chapter 6
00:49:59.330 : :Chapter 7
00:53:18.404 : :Chapter 8
01:02:15.941 : :Chapter 9
01:06:21.686 : :Chapter 10
01:14:16.369 : :Chapter 11
01:17:41.907 : :Chapter 12
01:20:43.714 : :Chapter 13
Скріншоти







За українські доріжки подяка п.: Bohdan237, Arsenfpu, JACKUS, Merdif, kryk-v.ya.
За український постер подяка п. bilenkuyboy
Особиста подяка пану denixx за надану матеріальну допомогу на підтримку цього і майбутніх релізів.
Джерело:


Срібний реліз (на рейтинг впливає 50% завантаженого)
 Трекер:    Зареєстрований   

Завантажити / скачати фільм українською



відео для новачків



 Зареєстрований:   2019-06-19 18:22
 Розмір:   9.19 GB 
 Оцінка фільму:   8.7/10 (Голосів: 7)
   
Ваш часовий пояс: GMT + 2 Години

Нова тема   Відповісти