Індіанський воїн / The Indian Fighter (1955) Remux 1080p Ukr/Eng | Sub Eng

Нові коментарі

Нова тема   Відповісти
Останній раз роздавалося MakRA (2020-09-26)
Автор Повідомлення
MakRA 
VIP


З нами з: 11.11.18
Востаннє: 25.09.20
Повідомлень: 1120

2019-06-19 18:52  
Індіанський воїн / The Indian Fighter (1955) Remux 1080p Ukr/Eng | Sub Eng

Індіанський воїн / The Indian Fighter (1955) Remux 1080p Ukr/Eng | Sub Eng

Альтернативні обкладинки і постери:






Жанр: вестерн
Країна: США



Кінокомпанія: Bryna Productions, United Artists
Режисер: Андре Де Тот [André De Toth]
Актори: Кірк Дуглас [Kirk Douglas], Ельза Мартінеллі [Elsa Martinelli], Волтер Меттау [Walter Matthau], Діана Дуглас [Diana Douglas], Волтер Абель [Walter Abel], Лон Чейні мол. [Lon Chaney Jr.], Едуард Франц [Eduard Franz], Алан Хейл мол. [Alan Hale Jr.], Еліша Кук мол. [Elisha Cook Jr.], Рей Тіл [Ray Teal].

Сюжет:
Орегон. 1870 рік. Вождь племені Сіу "Червона хмара" любить рідний край і не бажає присутності чужинців. Він оголосив війну білим переселенцям за те, що ті споюють його плем'я, вимінюючи золото на дешеве віскі, і хочуть захопити золотоносний струмок. Джонні Гоукс, свого часу найкращий друг індіанців, повертається на Дикий Захід після громадянської війни, з метою повернутися до мирного життя. Герой підряджається провести караван переселенців через землі племені Сіу до родючих рівнин. Домігшись підписання тимчасового мирного договору з вождем племені, колоністи вирушають в дорогу. Але серед білих є також незадоволені - вони роблять все можливе, щоб порушити домовленість і хитрістю вивідати золоте родовище племені. Через їх жадібність на гірській стежці пролита кров мирних індіанців. У відповідь на вбивство вождь піднімає сокиру війни і лише завдяки силі переконання Джонні Гоукса вдається зупинити нове кровопролиття ...



Тривалість: 01:28:24
Якість: Remux 1080p
Відео:
кодек:
розмір кадру: 1920 х 1080
бітрейт: 24 Mб/с

Аудіо # 1:
мова: українська
переклад: багатоголосий закадровий
кодек: 2.0
бітрейт: 192 кб/с

Аудіо # 2:
мова: англійська
переклад: оригінал
кодек: -HD MA 2.0
бітрейт: 1536 кб/с

Аудіо # 3:
мова: англійська
переклад: оригінал | Commentary by Western Historian Toby Roan
кодек: 2.0
бітрейт: 192 кб/с

Субтитри: (Full)
мова: англійська
тип: пререндерні
формат: *.pgs

Збережено оригінальні розділи, як на Blu-ray.
Info
General
Unique ID : 238494840093709890101192495963556396755 (0xB36C6F77265B54C4F30E73E5482DBED3)
Complete name : F:\Вестерни\The Indian Fighter (1955) Remux 1080p UkrEng Sub Eng [Hurtom].
Format :
Format version : Version 4 / Version 2
File size : 16.0 GiB
Duration : 1 h 28 min
Overall bit rate mode : Variable
Overall bit rate : 25.9 Mb/s
Movie name : Індіанський воїн / The Indian Fighter (1955) Remux 1080p Ukr/Eng | Sub Eng [Hurtom]
Encoded date : UTC 2019-02-20 16:10:06
Writing application : v25.0.0 ('Prog Noir') 64-bit
Writing library : libebml v1.3.6 + v1.4.9
Cover : Yes
Attachments : cover.jpg

Video
ID : 1
Format : AVC
Format/Info : Advanced Video Codec
Format profile : [email protected]
Format settings, CABAC : Yes
Format settings, RefFrames : 4 frames
Codec ID : V_MPEG4/ISO/AVC
Duration : 1 h 28 min
Bit rate mode : Variable
Bit rate : 24.0 Mb/s
Maximum bit rate : 35.0 Mb/s
Width : 1 920 pixels
Height : 1 080 pixels
Display aspect ratio : 16:9
Frame rate mode : Constant
Frame rate : 23.976 (24000/1001) FPS
Standard : NTSC
Color space : YUV
Chroma subsampling : 4:2:0
Bit depth : 8 bits
Scan type : Progressive
Bits/(Pixel*Frame) : 0.482
Stream size : 14.8 GiB (92%)
Title : The Indian Fighter (1955) Remux 1080p Ukr/Eng | Sub Eng [Hurtom]
Language : Ukrainian
Default : Yes
Forced : Yes
Color range : Limited
Color primaries : BT.709
Transfer characteristics : BT.709
Matrix coefficients : BT.709

Audio #1
ID : 2
Format : AC-3
Format/Info : Audio Coding 3
Format settings, Endianness : Big
Codec ID : A_AC3
Duration : 1 h 28 min
Bit rate mode : Constant
Bit rate : 192 kb/s
Channel(s) : 2 channels
Channel positions : Front: L R
Sampling rate : 48.0 kHz
Frame rate : 31.250 FPS (1536 SPF)
Bit depth : 16 bits
Compression mode : Lossy
Stream size : 121 MiB (1%)
Title : MVO [AMC]
Language : Ukrainian
Service kind : Complete Main
Default : Yes
Forced : Yes

Audio #2
ID : 3
Format :
Format/Info : Digital Theater Systems
Format profile : MA / Core
Mode : 16
Format settings, Endianness : Big
Codec ID : A_DTS
Duration : 1 h 28 min
Bit rate mode : Variable / Constant
Bit rate : 1 536 kb/s / 1 509 kb/s
Channel(s) : 2 channels
Channel positions : Front: L R
Sampling rate : 48.0 kHz
Frame rate : 93.750 FPS (512 SPF)
Bit depth : 16 bits
Compression mode : Lossless / Lossy
Stream size : 985 MiB (6%)
Title : Original
Language : English
Default : No
Forced : No

Audio #3
ID : 4
Format : AC-3
Format/Info : Audio Coding 3
Format settings, Endianness : Big
Codec ID : A_AC3
Duration : 1 h 28 min
Bit rate mode : Constant
Bit rate : 192 kb/s
Channel(s) : 2 channels
Channel positions : Front: L R
Sampling rate : 48.0 kHz
Frame rate : 31.250 FPS (1536 SPF)
Bit depth : 16 bits
Compression mode : Lossy
Stream size : 121 MiB (1%)
Title : Original | Commentary by Western Historian Toby Roan
Language : English
Service kind : Complete Main
Default : No
Forced : No

Text
ID : 5
Format : PGS
Muxing mode : zlib
Codec ID : S_HDMV/PGS
Codec ID/Info : Picture based subtitle format used on BDs/HD-DVDs
Duration : 1 h 24 min
Bit rate : 24.0 kb/s
Count of elements : 1492
Stream size : 14.5 MiB (0%)
Title : Eng
Language : English
Default : No
Forced : No

Menu
00:00:00.000 : en:00:00:00.000
00:10:29.796 : en:00:10:29.796
00:20:19.135 : en:00:20:19.135
00:27:04.540 : en:00:27:04.540
00:35:54.611 : en:00:35:54.611
00:48:31.784 : en:00:48:31.784
00:59:37.115 : en:00:59:37.115
01:16:07.104 : en:01:16:07.104
Скріншоти
Джерело: &
Велика подяка п. Sando7 за запис з ТБ та п. Arsenfpu за синхронізацію.
Особиста оцінка: 10 - без зайвих вагань рекомендую всім!


Золотий реліз (завантажене не впливає на рейтинг)
 Трекер:    Зареєстрований   

Завантажити / скачати фільм українською



відео для новачків



 Зареєстрований:   2019-06-19 18:52
 Розмір:   16.01 GB 
 Оцінка фільму:   10/10 (Голосів: 6)
   
Інші релізи
Ваш часовий пояс: GMT + 2 Години

Нова тема   Відповісти