Мекард / Mecard (Сезон 1, 24 серії з 52) (2018) 1080p Ukr/Eng

Нові коментарі

Нова тема   Відповісти
Автор Повідомлення
sergiyko.5 
Забанено
Забанено


З нами з: 25.02.16
Востаннє: 29.10.20
Повідомлень: 3648

2019-06-19 16:58  
Мекард / Mecard (Сезон 1, 24 серії з 52) (2018) 1080p Ukr/Eng

Мекард / Mecard (Сезон 1, 24 серії з 52) (2018) 1080p Ukr/Eng

Жанр: анімація, пригоди, спорт
Країна: Південна Корея
Кінокомпанія: Korean Broadcasting System
Режисер: Хон Хон Хьо

Сюжет:
Джейсон зустрічає інопланетну розмовлюючу машину, яка може трансформуватися в гігантського воїна. Хлопчик потоваришував з новим другом, який виявляється прибув з іншого виміру, має неймовірну силу і звуть його Еван. Однак Еван виявляється не єдиним прибульцем і Джейсон вирішує допомогти новому другові в пошуках зниклих родичів.




Тривалість: 1 серія: 11:10 (цілком серій: 24 з 52)
Якість: 1080p

Відео: кодек: розмір кадру: 1920 х 1080 бітрейт: ~ 1000 кб/с
Аудіо # 1: мова: українська переклад: професійний дубльований кодек: 2.0 бітрейт: 192 кб/с
Озвучення:
Аудіо # 2: мова: англійська переклад: оригінал кодек: 2.0 бітрейт: 128 кб/с
Перелік серій
01.New Kid, New Mystery.Part 1
02.New Kid, New Mystery.Part 2

04.Something in Common.Part 2
05.Blue City vs. Red Hall.Part 1

07.Starting Over.Part 1
08.Starting Over.Part 2
09.Cavern Combat.Part 1
10.Cavern Combat.Part 2
11.The Truth About Isobel.Part 1
12.The Truth About Isobel.Part 2
13.Haunted House Hunting.Part 1
14.Haunted House Hunting.Part 2
15.Juliet the Snoop.Part 1
16.Juliet the Snoop.Part 2
17.Battle at the Beach.Part 1
18.Battle at the Beach.Part 2
19.An Enemy in Common.Part 1
20.An Enemy in Common.Part 2
21.The Man in the Red Ruby.Part 1
22.The Man in the Red Ruby.Part 2
23.My Brother, My Enemy.Part 1
24.My Brother, My Enemy.Part 2
25.Breaking the Mecardimal Rule.Part 1
26.Breaking the Mecardimal Rule.Part 2
Про файл:
General
Unique ID : 325431272883312342322953303361597241444 (0xF4D3C8883929CEDE8648D665ACB87864)
Complete name : G:\Torrents2\MULT\MuSERIAL\Mecard S01 1080p\S01E01.New Kid, New Mystery.Part 1.1080p..
Format :
Format version : Version 4
File size : 90.0 MiB
Duration : 11 min 10 s
Overall bit rate : 1 126 kb/s
Movie name : Mecard S01 1080p by sergiyko
Encoded date : UTC 2019-06-19 07:24:30
Writing application : v34.0.0 ('Sight and Seen') 64-bit
Writing library : libebml v1.3.7 + v1.5.0

Video
ID : 1
Format : AVC
Format/Info : Advanced Video Codec
Format profile : [email protected]
Format settings : CABAC / 3 Ref Frames
Format settings, CABAC : Yes
Format settings, Reference : 3 frames
Codec ID : V_MPEG4/ISO/AVC
Duration : 11 min 10 s
Bit rate : 805 kb/s
Width : 1 920 pixels
Height : 1 080 pixels
Display aspect ratio : 16:9
Frame rate mode : Constant
Frame rate : 29.970 (30000/1001) FPS
Color space : YUV
Chroma subsampling : 4:2:0
Bit depth : 8 bits
Scan type : Progressive
Bits/(Pixel*Frame) : 0.013
Stream size : 64.3 MiB (71%)
Title : S01E01.New Kid, New Mystery.Part 1
Language : English
Default : Yes
Forced : No
Color range : Limited
Color primaries : BT.709
Transfer characteristics : BT.709
Matrix coefficients : BT.709

Audio #1
ID : 2
Format : LC
Format/Info : Advanced Audio Codec Low Complexity
Codec ID : A_AAC-2
Duration : 11 min 10 s
Bit rate : 192 kb/s
Channel(s) : 2 channels
Channel layout : L R
Sampling rate : 48.0 kHz
Frame rate : 46.875 FPS (1024 SPF)
Compression mode : Lossy
Delay relative to video : 9 ms
Stream size : 15.3 MiB (17%)
Title : DUB 2ch | ПлюсПлюс
Language : Ukrainian
Default : Yes
Forced : Yes

Audio #2
ID : 3
Format : LC
Format/Info : Advanced Audio Codec Low Complexity
Codec ID : A_AAC-2
Duration : 11 min 10 s
Bit rate : 126 kb/s
Channel(s) : 2 channels
Channel layout : L R
Sampling rate : 44.1 kHz
Frame rate : 43.066 FPS (1024 SPF)
Compression mode : Lossy
Stream size : 10.0 MiB (11%)
Language : English
Default : No
Forced : No

Скріншоти:



Запис/зведення: sergiyko


Бронзовий реліз (на рейтинг впливає 75% завантаженого)
 Трекер:    Зареєстрований   

Завантажити / скачати мультфільм українською



відео для новачків



 Зареєстрований:   2019-06-19 16:58
 Розмір:   2.77 GB 
 Оцінка мультсеріалу:   10/10 (Голосів: 4)
   
56348gop 
Свій


З нами з: 03.12.16
Востаннє: 27.03.21
Повідомлень: 90

2019-08-27 12:09  
Це хіба не аніме?
Ваш часовий пояс: GMT + 2 Години

Нова тема   Відповісти