Недоторканні / The Untouchables (1987) 1080p 2xUkr/Eng | Sub Ukr/Eng

Нові коментарі

Нова тема   Відповісти
Автор Повідомлення
Anonymous 







2019-06-19 16:53  
Недоторканні / The Untouchables (1987) 1080p 2xUkr/Eng | Sub Ukr/Eng



Жанр: кримінальний, драма, історичний, трилер
Країна: США



Кінокомпанія: Paramount Pictures
Режисер: Браян Де Пальма / Brian De Palma
Актори: Кевін Костнер / Kevin Costner, Шон Коннері / Sean Connery, Чарльз Мартін Сміт / Charles Martin Smith, Енді Ґарсія / Andy Garcia, Роберт Де Ніро / Robert De Niro, Річард Бредфорд / Richard Bradford, Джек Кігоу / Jack Kehoe, Бред Салліван / Brad Sullivan, Біллі Драґо / Billy Drago, Патриція Кларксон / Patricia Clarkson

Сюжет:
У Чикаго 1931 року кримінальне життя б'є ключем. Для того, щоб зупинити холоднокровного і невразливого Аль Капоне, урядом створена спеціальна команда "недоторканних"... Проте це не просто історія про крах імперії Аль Капоне. Це - хроніка боротьби двох чоловіків, кожний з яких присягнувся знищити супротивника. На стороні закону стояв Еліот Несс, агент міністерства фінансів, на стороні насильства - великий гангстер Аль Капоне...


Тривалість: 01:59:27
Якість: 1080p
Відео:
кодек:
розмір кадру: 1920х816
бітрейт: 8377 кб/с

Аудіо # 1:
мова: українська
переклад: багатоголосий закадровий
кодек: 2.0
бітрейт: 192 кб/с

Аудіо # 2:
мова: українська
переклад: багатоголосий закадровий
кодек: 2.0
бітрейт: 192 кб/с

Аудіо # 3:
мова: англійська
переклад: оригінал
кодек: 5.1
бітрейт: 384 кб/с

Субтитри # 1:
мова: українська
тип: програмні (м'які)
формат: *.srt

Субтитри # 2:
мова: англійська
тип: програмні (м'які)
формат: *.srt
Info
General
Unique ID : 254837049095395736403425126038142378583 (0xBFB7D493BB5F6EAEAA875C3B69AAE257)
Format :
Format version : Version 4
File size : 7.63 GiB
Duration : 1 h 59 min
Overall bit rate : 9 143 kb/s
Encoded date : UTC 2019-06-19 13:45:34
Writing application : v6.1.0 ('Old Devil') built on Mar 4 2013 09:10:42
Writing library : libebml v1.3.0 + v1.4.0

Video
ID : 1
Format : AVC
Format/Info : Advanced Video Codec
Format profile : [email protected]
Format settings : CABAC / 4 Ref Frames
Format settings, CABAC : Yes
Format settings, RefFrames : 4 frames
Codec ID : V_MPEG4/ISO/AVC
Duration : 1 h 59 min
Bit rate : 8 377 kb/s
Width : 1 920 pixels
Height : 816 pixels
Display aspect ratio : 2.35:1
Frame rate mode : Constant
Frame rate : 23.976 (24000/1001) FPS
Color space : YUV
Chroma subsampling : 4:2:0
Bit depth : 8 bits
Scan type : Progressive
Bits/(Pixel*Frame) : 0.223
Stream size : 6.84 GiB (90%)
Writing library : core 133 r2334 a3ac64b
Encoding settings : cabac=1 / ref=4 / deblock=1:-1:-1 / analyse=0x3:0x133 / me=umh / subme=10 / psy=1 / psy_rd=1.00:0.00 / mixed_ref=1 / me_range=32 / chroma_me=1 / trellis=2 / 8x8dct=1 / cqm=0 / deadzone=21,11 / fast_pskip=0 / chroma_qp_offset=-2 / threads=6 / lookahead_threads=1 / sliced_threads=0 / nr=0 / decimate=1 / interlaced=0 / bluray_compat=0 / constrained_intra=0 / bframes=8 / b_pyramid=2 / b_adapt=2 / b_bias=0 / direct=3 / weightb=1 / open_gop=0 / weightp=2 / keyint=240 / keyint_min=24 / scenecut=40 / intra_refresh=0 / rc_lookahead=50 / rc=2pass / mbtree=0 / bitrate=8377 / ratetol=2.0 / qcomp=1.00 / qpmin=0 / qpmax=51 / qpstep=4 / cplxblur=20.0 / qblur=0.5 / vbv_maxrate=35000 / vbv_bufsize=30000 / nal_hrd=none / ip_ratio=1.40 / pb_ratio=1.30 / aq=1:1.00
Language : English
Default : Yes
Forced : No
Color range : Limited
Color primaries : BT.709
Transfer characteristics : BT.709
Matrix coefficients : BT.709

Audio #1
ID : 2
Format : AC-3
Format/Info : Audio Coding 3
Commercial name : Dolby Digital
Codec ID : A_AC3
Duration : 1 h 59 min
Bit rate mode : Constant
Bit rate : 192 kb/s
Channel(s) : 2 channels
Channel layout : L R
Sampling rate : 48.0 kHz
Frame rate : 31.250 FPS (1536 SPF)
Bit depth : 16 bits
Compression mode : Lossy
Stream size : 164 MiB (2%)
Title : UKR (Новий)
Language : Ukrainian
Service kind : Complete Main
Default : Yes
Forced : Yes

Audio #2
ID : 3
Format : AC-3
Format/Info : Audio Coding 3
Commercial name : Dolby Digital
Codec ID : A_AC3
Duration : 1 h 59 min
Bit rate mode : Constant
Bit rate : 192 kb/s
Channel(s) : 2 channels
Channel layout : L R
Sampling rate : 48.0 kHz
Frame rate : 31.250 FPS (1536 SPF)
Bit depth : 16 bits
Compression mode : Lossy
Stream size : 164 MiB (2%)
Title : UKR (Інтер)
Language : Ukrainian
Service kind : Complete Main
Default : No
Forced : No

Audio #3
ID : 4
Format : AC-3
Format/Info : Audio Coding 3
Commercial name : Dolby Digital
Codec ID : A_AC3
Duration : 1 h 59 min
Bit rate mode : Constant
Bit rate : 384 kb/s
Channel(s) : 6 channels
Channel layout : L R C LFE Ls Rs
Sampling rate : 48.0 kHz
Frame rate : 31.250 FPS (1536 SPF)
Bit depth : 16 bits
Compression mode : Lossy
Stream size : 328 MiB (4%)
Title : ENG
Language : English
Service kind : Complete Main
Default : No
Forced : No

Text #1
ID : 5
Format : UTF-8
Codec ID : S_TEXT/UTF8
Codec ID/Info : UTF-8 Plain Text
Title : UKR
Language : Ukrainian
Default : Yes
Forced : No

Text #2
ID : 6
Format : UTF-8
Codec ID : S_TEXT/UTF8
Codec ID/Info : UTF-8 Plain Text
Title : ENG
Language : English
Default : No
Forced : No

Menu
00:00:00.000 : en:00:00:00.000
00:02:43.830 : en:00:02:43.830
00:06:42.193 : en:00:06:42.193
00:08:17.371 : en:00:08:17.371
00:10:40.097 : en:00:10:40.097
00:16:00.501 : en:00:16:00.501
00:19:39.219 : en:00:19:39.219
00:23:13.308 : en:00:23:13.308
00:29:40.320 : en:00:29:40.320
00:34:01.080 : en:00:34:01.080
00:36:01.075 : en:00:36:01.075
00:41:03.252 : en:00:41:03.252
00:43:27.688 : en:00:43:27.688
00:47:33.058 : en:00:47:33.058
01:01:35.274 : en:01:01:35.274
01:08:18.219 : en:01:08:18.219
01:17:17.758 : en:01:17:17.758
01:18:34.793 : en:01:18:34.793
01:22:12.761 : en:01:22:12.761
01:26:22.844 : en:01:26:22.844
01:35:58.919 : en:01:35:58.919
01:39:09.944 : en:01:39:09.944
01:47:21.351 : en:01:47:21.351
01:55:30.173 : en:01:55:30.173
Скріншоти









За українські доріжки подяка п.: Tanat13, andic, Tanat13, MAKAPOHHIK, karvai0
За український постер подяка п. Gelios
Особиста подяка пану denixx за надану матеріальну допомогу на підтримку цього і майбутніх релізів.
Джерело:


Срібний реліз (на рейтинг впливає 50% завантаженого)
 Трекер:    Зареєстрований   

Завантажити / скачати фільм українською



відео для новачків



 Зареєстрований:   2019-06-19 16:53
 Розмір:   7.63 GB 
 Оцінка фільму:   10/10 (Голосів: 5)
   
Інші релізи
Ваш часовий пояс: GMT + 2 Години

Нова тема   Відповісти