Мовчання / The Silence (2019) 720p Eng | Sub Ukr/Eng/Multi

Нові коментарі

Нова тема   Відповісти
Автор Повідомлення
Anonymous 







2019-06-18 14:13  
Мовчання / The Silence (2019) 720p Eng | Sub Ukr/Eng/Multi



Жанр: жахи, трилер
Країна: Німеччина



Кінокомпанія: Constantin Film, EMJAG Productions, Netflix
Режисер: Джон Р. Леонетті / John R. Leonetti
Актори: Кірнан Шіпка, Стенлі Туччі, Міранда Отто, Джон Корбетт

Сюжет:
Спелеологи відкрили стародавню печеру в Пенсільванії та випустили на волю агресивних кровожерливих істот, схожих на кажанів. Тварюки сліпі, орієнтуються лише на звук, літають за допомогою шкірястих крил і досить активно розмножуються, тому швидко поширюються по Північній Америці, несучи хаос, смерть і знищуючи цивілізацію.

Посеред цього хаосу родина 16-річної глухої дівчини-підлітка бореться за виживання.
Український (dzuski.com) та оригінальний трейлери:

український трейлер від dzuski.com:


оригінальний:

Рейтинг MPAA: PG-13 - дітям до 13 років перегляд не бажаний
Вікова категорія: 16+

Тривалість: 01:30:53
Якість: 720p
Відео:
кодек:
розмір кадру: 1280 х 536
бітрейт: 4000 кб/с

Аудіо:
мова: англійська
переклад: оригінал
кодек: E- 5.1
бітрейт: 640 кб/с

Субтитри # 1:
мова: українська
тип: програмні (м'які)
формат: *.srt
переклад: спільнота SubAutumn
коригування: igor911

Субтитри # 2-27:
мова: англійська (повні, SDH), арабська, чеська, данська, грецька, іспанська, іспанська (європейська), фінська, французька, гебрейська, хінді, індонезійська, італійська, японська, норвезька (букмол), нідерландська, польська, португальська, португальська (бразильська), румунська, шведська, тайська, турецька, в'єтнамська, китайська (традиційна)
тип: програмні (м'які)
формат: *.srt
Info
Код:

Complete name               : The Silence (2019) [Eng sub.Ukr,Eng,Multi] 720p [Hurtom].
Format                      :
Format version              : Version 4
File size                   : 2.95 GiB
Duration                    : 1 h 30 min
Overall bit rate            : 4 642 kb/s
Movie name                  : Мовчання / The Silence (2019) [Eng sub.Ukr,Eng,Multi] 720p [Hurtom]
Encoded date                : UTC 2019-06-18 12:17:23
Writing application         : v34.0.0 ('Sight and Seen') 64-bit
Writing library             : libebml v1.3.7 + v1.5.0
Cover                       : Yes
Attachments                 : cover.jpg

Video
ID                          : 1
Format                      : AVC
Format/Info                 : Advanced Video Codec
Format profile              : [email protected]
Format settings             : CABAC / 10 Ref Frames
Format settings, CABAC      : Yes
Format settings, Reference  : 10 frames
Codec ID                    : V_MPEG4/ISO/AVC
Duration                    : 1 h 30 min
Bit rate                    : 4 000 kb/s
Width                       : 1 280 pixels
Height                      : 536 pixels
Display aspect ratio        : 2.40:1
Frame rate mode             : Constant
Frame rate                  : 23.976 (24000/1001) FPS
Color space                 : YUV
Chroma subsampling          : 4:2:0
Bit depth                   : 8 bits
Scan type                   : Progressive
Bits/(Pixel*Frame)          : 0.243
Stream size                 : 2.54 GiB (86%)
Title                       : Мовчання / The Silence (2019) 720p
Writing library             : core 148 r2638 7599210
Encoding settings           : cabac=1 / ref=10 / deblock=1:-2:-2 / analyse=0x3:0x133 / me=umh / subme=11 / psy=1 / psy_rd=1.00:0.20 / mixed_ref=1 / me_range=48 / chroma_me=1 / trellis=2 / 8x8dct=1 / cqm=0 / deadzone=21,11 / fast_pskip=1 / chroma_qp_offset=-3 / threads=6 / lookahead_threads=1 / sliced_threads=0 / nr=0 / decimate=1 / interlaced=0 / bluray_compat=0 / constrained_intra=0 / bframes=10 / b_pyramid=2 / b_adapt=2 / b_bias=0 / direct=3 / weightb=1 / open_gop=0 / weightp=2 / keyint=250 / keyint_min=23 / scenecut=40 / intra_refresh=0 / rc_lookahead=60 / rc=2pass / mbtree=1 / bitrate=4000 / ratetol=1.0 / qcomp=0.60 / qpmin=0 / qpmax=69 / qpstep=4 / cplxblur=20.0 / qblur=0.5 / ip_ratio=1.40 / aq=1:1.00
Language                    : English
Default                     : Yes
Forced                      : No

Audio
ID                          : 2
Format                      : E-AC-3
Format/Info                 : Enhanced AC-3
Commercial name             : Dolby Digital Plus
Codec ID                    : A_EAC3
Duration                    : 1 h 30 min
Bit rate mode               : Constant
Bit rate                    : 640 kb/s
Channel(s)                  : 6 channels
Channel layout              : L R C LFE Ls Rs
Sampling rate               : 48.0 kHz
Frame rate                  : 31.250 FPS (1536 SPF)
Compression mode            : Lossy
Stream size                 : 416 MiB (14%)
Title                       : Original, E-  5.1 640 Kbps
Language                    : English
Service kind                : Complete Main
Default                     : Yes
Forced                      : No

Text #1
ID                          : 3
Format                      : UTF-8
Codec ID                    : S_TEXT/UTF8
Codec ID/Info               : UTF-8 Plain Text
Duration                    : 1 h 29 min
Bit rate                    : 36 b/s
Count of elements           : 595
Stream size                 : 23.6 KiB (0%)
Title                       : Ukr full [SubAutumn]
Language                    : Ukrainian
Default                     : Yes
Forced                      : Yes

Text #2
ID                          : 4
Format                      : UTF-8
Codec ID                    : S_TEXT/UTF8
Codec ID/Info               : UTF-8 Plain Text
Duration                    : 1 h 23 min
Bit rate                    : 26 b/s
Count of elements           : 591
Stream size                 : 16.1 KiB (0%)
Title                       : Eng full
Language                    : English
Default                     : No
Forced                      : No

Text #3
ID                          : 5
Format                      : UTF-8
Codec ID                    : S_TEXT/UTF8
Codec ID/Info               : UTF-8 Plain Text
Duration                    : 1 h 24 min
Bit rate                    : 41 b/s
Count of elements           : 921
Stream size                 : 25.4 KiB (0%)
Title                       : Eng SDH
Language                    : English
Default                     : No
Forced                      : No

Text #4
ID                          : 6
Format                      : UTF-8
Codec ID                    : S_TEXT/UTF8
Codec ID/Info               : UTF-8 Plain Text
Duration                    : 1 h 24 min
Bit rate                    : 46 b/s
Count of elements           : 613
Stream size                 : 28.5 KiB (0%)
Language                    : Arabic
Default                     : No
Forced                      : No

Text #5
ID                          : 7
Format                      : UTF-8
Codec ID                    : S_TEXT/UTF8
Codec ID/Info               : UTF-8 Plain Text
Duration                    : 1 h 24 min
Bit rate                    : 24 b/s
Count of elements           : 598
Stream size                 : 15.3 KiB (0%)
Language                    : Czech
Default                     : No
Forced                      : No

Text #6
ID                          : 8
Format                      : UTF-8
Codec ID                    : S_TEXT/UTF8
Codec ID/Info               : UTF-8 Plain Text
Duration                    : 1 h 24 min
Bit rate                    : 22 b/s
Count of elements           : 597
Stream size                 : 14.1 KiB (0%)
Language                    : Danish
Default                     : No
Forced                      : No

Text #7
ID                          : 9
Format                      : UTF-8
Codec ID                    : S_TEXT/UTF8
Codec ID/Info               : UTF-8 Plain Text
Duration                    : 1 h 24 min
Bit rate                    : 41 b/s
Count of elements           : 567
Stream size                 : 25.4 KiB (0%)
Language                    : Greek
Default                     : No
Forced                      : No

Text #8
ID                          : 10
Format                      : UTF-8
Codec ID                    : S_TEXT/UTF8
Codec ID/Info               : UTF-8 Plain Text
Duration                    : 1 h 24 min
Bit rate                    : 27 b/s
Count of elements           : 595
Stream size                 : 16.7 KiB (0%)
Language                    : Spanish
Default                     : No
Forced                      : No

Text #9
ID                          : 11
Format                      : UTF-8
Codec ID                    : S_TEXT/UTF8
Codec ID/Info               : UTF-8 Plain Text
Duration                    : 1 h 24 min
Bit rate                    : 25 b/s
Count of elements           : 611
Stream size                 : 15.8 KiB (0%)
Title                       : European
Language                    : Spanish
Default                     : No
Forced                      : No

Text #10
ID                          : 12
Format                      : UTF-8
Codec ID                    : S_TEXT/UTF8
Codec ID/Info               : UTF-8 Plain Text
Duration                    : 1 h 24 min
Bit rate                    : 23 b/s
Count of elements           : 589
Stream size                 : 14.5 KiB (0%)
Language                    : Finnish
Default                     : No
Forced                      : No

Text #11
ID                          : 13
Format                      : UTF-8
Codec ID                    : S_TEXT/UTF8
Codec ID/Info               : UTF-8 Plain Text
Duration                    : 1 h 24 min
Bit rate                    : 27 b/s
Count of elements           : 606
Stream size                 : 16.9 KiB (0%)
Language                    : French
Default                     : No
Forced                      : No

Text #12
ID                          : 14
Format                      : UTF-8
Codec ID                    : S_TEXT/UTF8
Codec ID/Info               : UTF-8 Plain Text
Duration                    : 1 h 24 min
Bit rate                    : 38 b/s
Count of elements           : 606
Stream size                 : 23.5 KiB (0%)
Language                    : Hebrew
Default                     : No
Forced                      : No

Text #13
ID                          : 15
Format                      : UTF-8
Codec ID                    : S_TEXT/UTF8
Codec ID/Info               : UTF-8 Plain Text
Duration                    : 1 h 24 min
Bit rate                    : 70 b/s
Count of elements           : 616
Stream size                 : 43.6 KiB (0%)
Language                    : Hindi
Default                     : No
Forced                      : No

Text #14
ID                          : 16
Format                      : UTF-8
Codec ID                    : S_TEXT/UTF8
Codec ID/Info               : UTF-8 Plain Text
Duration                    : 1 h 24 min
Bit rate                    : 25 b/s
Count of elements           : 619
Stream size                 : 15.6 KiB (0%)
Language                    : Indonesian
Default                     : No
Forced                      : No

Text #15
ID                          : 17
Format                      : UTF-8
Codec ID                    : S_TEXT/UTF8
Codec ID/Info               : UTF-8 Plain Text
Duration                    : 1 h 24 min
Bit rate                    : 22 b/s
Count of elements           : 578
Stream size                 : 14.1 KiB (0%)
Language                    : Italian
Default                     : No
Forced                      : No

Text #16
ID                          : 18
Format                      : UTF-8
Codec ID                    : S_TEXT/UTF8
Codec ID/Info               : UTF-8 Plain Text
Duration                    : 1 h 24 min
Bit rate                    : 24 b/s
Count of elements           : 626
Stream size                 : 14.9 KiB (0%)
Language                    : Japanese
Default                     : No
Forced                      : No

Text #17
ID                          : 19
Format                      : UTF-8
Codec ID                    : S_TEXT/UTF8
Codec ID/Info               : UTF-8 Plain Text
Duration                    : 1 h 24 min
Bit rate                    : 24 b/s
Count of elements           : 529
Stream size                 : 15.3 KiB (0%)
Language                    : Norwegian Bokmal
Default                     : No
Forced                      : No

Text #18
ID                          : 20
Format                      : UTF-8
Codec ID                    : S_TEXT/UTF8
Codec ID/Info               : UTF-8 Plain Text
Duration                    : 1 h 24 min
Bit rate                    : 20 b/s
Count of elements           : 460
Stream size                 : 12.6 KiB (0%)
Language                    : Dutch
Default                     : No
Forced                      : No

Text #19
ID                          : 21
Format                      : UTF-8
Codec ID                    : S_TEXT/UTF8
Codec ID/Info               : UTF-8 Plain Text
Duration                    : 1 h 24 min
Bit rate                    : 23 b/s
Count of elements           : 576
Stream size                 : 14.4 KiB (0%)
Language                    : Polish
Default                     : No
Forced                      : No

Text #20
ID                          : 22
Format                      : UTF-8
Codec ID                    : S_TEXT/UTF8
Codec ID/Info               : UTF-8 Plain Text
Duration                    : 1 h 24 min
Bit rate                    : 24 b/s
Count of elements           : 582
Stream size                 : 15.1 KiB (0%)
Language                    : Portuguese
Default                     : No
Forced                      : No

Text #21
ID                          : 23
Format                      : UTF-8
Codec ID                    : S_TEXT/UTF8
Codec ID/Info               : UTF-8 Plain Text
Duration                    : 1 h 24 min
Bit rate                    : 24 b/s
Count of elements           : 603
Stream size                 : 14.9 KiB (0%)
Title                       : Brazilian
Language                    : Portuguese
Default                     : No
Forced                      : No

Text #22
ID                          : 24
Format                      : UTF-8
Codec ID                    : S_TEXT/UTF8
Codec ID/Info               : UTF-8 Plain Text
Duration                    : 1 h 24 min
Bit rate                    : 29 b/s
Count of elements           : 606
Stream size                 : 18.5 KiB (0%)
Language                    : Romanian
Default                     : No
Forced                      : No

Text #23
ID                          : 25
Format                      : UTF-8
Codec ID                    : S_TEXT/UTF8
Codec ID/Info               : UTF-8 Plain Text
Duration                    : 1 h 24 min
Bit rate                    : 23 b/s
Count of elements           : 547
Stream size                 : 14.7 KiB (0%)
Language                    : Swedish
Default                     : No
Forced                      : No

Text #24
ID                          : 26
Format                      : UTF-8
Codec ID                    : S_TEXT/UTF8
Codec ID/Info               : UTF-8 Plain Text
Duration                    : 1 h 24 min
Bit rate                    : 67 b/s
Count of elements           : 621
Stream size                 : 41.7 KiB (0%)
Language                    : Thai
Default                     : No
Forced                      : No

Text #25
ID                          : 27
Format                      : UTF-8
Codec ID                    : S_TEXT/UTF8
Codec ID/Info               : UTF-8 Plain Text
Duration                    : 1 h 24 min
Bit rate                    : 28 b/s
Count of elements           : 615
Stream size                 : 17.3 KiB (0%)
Language                    : Turkish
Default                     : No
Forced                      : No

Text #26
ID                          : 28
Format                      : UTF-8
Codec ID                    : S_TEXT/UTF8
Codec ID/Info               : UTF-8 Plain Text
Duration                    : 1 h 24 min
Bit rate                    : 36 b/s
Count of elements           : 612
Stream size                 : 22.4 KiB (0%)
Language                    : Vietnamese
Default                     : No
Forced                      : No

Text #27
ID                          : 29
Format                      : UTF-8
Codec ID                    : S_TEXT/UTF8
Codec ID/Info               : UTF-8 Plain Text
Duration                    : 1 h 24 min
Bit rate                    : 26 b/s
Count of elements           : 627
Stream size                 : 16.6 KiB (0%)
Title                       : Traditional
Language                    : Chinese
Default                     : No
Forced                      : No
Скріншоти
Джерело: & &


Золотий реліз (завантажене не впливає на рейтинг)
 Трекер:    Зареєстрований   

Завантажити / скачати фільм українською



відео для новачків



 Зареєстрований:   2019-06-18 14:33
 Розмір:   2.95 GB 
 Оцінка фільму:   9.8/10 (Голосів: 16)
 ЗАЛИШАЙТЕСЬ ЯКОМОГА ДОВШЕ НА РОЗДАЧІ! ЗАВАНТАЖИВ САМ - ДАЙ ЗАВАНТАЖИТИ ІНШИМ!
   
Інші релізи
   Мовчання / The Silence (2019) 1080p H.265 Eng | Sub Ukr/Eng -Star-Lord-  2 / 0   5.26 GB   2019-11-12 16:49 
   Мовчання / The Silence (2019) 720p Eng | Sub Ukr/Eng -Star-Lord-  0 / 0   4.93 GB   2019-11-10 00:46 
   Мовчання / The Silence (2019) 1080p Eng | Sub Ukr/Eng -Star-Lord-  0 / 0   7.5 GB   2019-11-10 00:45 
staf777 
Відео Гуртом - підтримка та поширення
Відео Гуртом - підтримка та поширення


З нами з: 16.11.16
Востаннє: 04.12.20
Повідомлень: 4595

2019-06-18 16:48  
Добре кіно
nosferatumes 
Свій


З нами з: 12.10.16
Востаннє: 03.12.20
Повідомлень: 85

2019-06-26 08:08  
Цікаве кіно, переглядати не буду. Ну дуже вже нагадує "Тихе місце". Акторська гра сподобалась, картинка теж. Проте відчуття дежавю та порівняння з "Тихим місцем" не полишало під час перегляду. 6/10.
DoctorLife 
Свій


З нами з: 19.04.10
Востаннє: 03.12.20
Повідомлень: 55

2019-10-26 01:13  
Оцінка явно занижена, фільм вартий уваги.
Щоправда більше схоже на пілот серіалу, де буде велике продовження. А його нема...

DoctorLife 
Свій


З нами з: 19.04.10
Востаннє: 03.12.20
Повідомлень: 55

2019-10-29 21:04  
Сподобався цей фільм, тому за рекомендаціцями вирішив подивитися "Тихе місце". Зовсім не те. Воно порожнє, а ось цей фільм є чудовим нагадуванням, що в будь-якій наздвичайно небезпечній ситуації найбільшим ворогом буде невігластво і примітивність інших людей.
Ваш часовий пояс: GMT + 2 Години

Нова тема   Відповісти