Індіана Джонс і Королівство Кришталевого Черепа / Indiana Jones and the Kingdom of the Crystal Skull (2008) Remux 1080p 2хUkr/Eng | Sub Ukr/Eng

Нові коментарі

Нова тема   Відповісти
Автор Повідомлення
MakRA 
VIP


З нами з: 11.11.18
Востаннє: 23.09.20
Повідомлень: 1119

2019-06-18 00:33  
Індіана Джонс і Королівство Кришталевого Черепа / Indiana Jones and the Kingdom of the Crystal Skull (2008) Remux 1080p 2хUkr/Eng | Sub Ukr/Eng

Індіана Джонс і Королівство Кришталевого Черепа / Indiana Jones and the Kingdom of the Crystal Skull (2008) Remux 1080p 2хUkr/Eng | Sub Ukr/Eng

Українські постер та обкладинка:




Альтернативні обкладинки і постери:




Жанр: екшн, пригодницький
Країна: США



Кінокомпанія: Paramount Pictures
Режисер: Стівен Спілберґ [Steven Spielberg]
Актори: Гаррісон Форд [Harrison Ford], Шиа ЛаБеф [Shia LaBeouf], Кейт Бланшетт [Cate Blanchett], Карен Аллен [Karen Allen], Рей Вінстон [Ray Winstone], Джон Герт [John Hurt], Джим Бродбент [Jim Broadbent], Ігор Жижикін [Igor Jijikine], Алан Дейл [Alan Dale], Дмитро Дяченко [Dimitri Diatchenko].

Сюжет:
Продовження карколомних пригод вже немолодого, але все ще енергійного професора археології Індіана Джонса.

Роки беруть своє і навіть невтомний шукач пригод і майстер з розбивання жіночих сердець постарів, але викладання в університеті та археологію Джонс не закинув.
Події фільму розгортаються в самий розпал холодної війни, у 1957 році. Радянські солдати, очолювані агентом Іриною Спалько, викрадають Меріон Рейвенвуд - давню кохану Індіани Джонса, ставлячи професора перед вибором: бездіяльність і смерть Меріон або допомога радянській розвідці у пошуках легендарного Кришталевого черепа в обмін на свободу жінки.

Джонс і його син починають свої пригоди: їм належить розшукати череп і повернути Меріон...

Цікаве про фільм:

-Зйомки картини тривали всього 79 днів. Це набагато менше, ніж робота над будь-яким великим фільмом — так уже повелося, що історії про пригоди Індіани знімають дуже швидко.
-На зйомках фільму у Гаррісона Форда був лише один вихідний день.
-Щоб заново навчитися працювати з культовим атрибутом Індіани — батoгом, Гаррісону знадобилося 6 днів тренувань.
-36 фетрових капелюхів всього було виготовлено в Міссісіпі для зйомок картини.
-30 шкіряних курток було зшито для персонажів Індіани Джонса і Пса Вільямса (Шайа ЛаБаф).
-Під час зйомок у Нью-Мексико знімальна група зіткнулася з трьома гримучими зміями, яких треба було обережно перевезти в інше місце.
-Під час зйомок фільму Гаррісон Форд і Карен Аллен відзначили свої дні народження.
-Солдати, які брали участь у зйомках картини, отримали масу нових вражень. Одні були вражені стародавніми скульптурами Майя, інші — черепами в одній зі сцен, а хтось танцями рокерів під дощем.
-У камері Окслі напис «Повернення» написана на різних мовах, у тому числі і російською.
-На складі, в самому кінці сцени показують «Втрачений ковчег», саме цей артефакт Джонс шукав в самій першій частині про Індіану.


Тривалість: 02:02:32
Якість: Remux 1080p
Відео:
кодек:
розмір кадру: 1920 х 1080
бітрейт: 31,2 Mб/с

Аудіо # 1:
мова: українська
переклад: професійний дубльований
кодек: 5.1
бітрейт: 448 кб/с
Про озвучення:
Ролі дублювали:Гарісон Форд/Індіана Джонс — Микола Боклан, Шиа ЛаБеф — Іван Розін, Професор Окслі — Владислав Пупков, Карен Аллен/Меріон — Лариса Руснак, Ніл Флінн/Сміт — Олександр Ігнатуша, Володимир Жогло, Костянтин Лінартович, Рей Вінстон/Мак — Василь Мазур, Джим Бродбент/Дін Чарльз Стенфорт — Юрій Висоцький, Дмитро Сова та інші.
Переклад: Федора Сидорука
Режисер дубляжу: Костянтин Лінартович
Менеджер проекту: Ірина Туловська .
Аудіо # 2:
мова: українська
переклад: двоголосий закадровий
кодек: 2.0
бітрейт: 192 кб/с
Про озвучення:
Ролі озвучували:Михайло Жонін і Наталя Ярошенко.
Аудіо # 3:
мова: англійська
переклад: оригінал
кодек: TrueHD 5.1
бітрейт: 1 654 кб/с

Аудіо # 4:
мова: англійська
переклад: оригінал
кодек: 5.1
бітрейт: 640 кб/с

Субтитри # 1: (Full)
мова: українська
тип: пререндерні
формат: *.pgs

Субтитри # 2: (Full)
мова: англійська
тип: пререндерні
формат: *.pgs

Субтитри # 3: (SDH)
мова: англійська
тип: програмні (м'які)
формат: *.srt
Info
General
Unique ID : 292198593862735532094838719451818193564 (0xDBD366F4244EEE2E7EBB0F009A0D729C)
Complete name : E:\Пригоди, екшн\Indiana Jones. The Complete Adventures (1981-2008) Remux 1080p\Indiana Jones and the Kingdom of the Crystal Skull (2008) Remux 1080p 2хUkrEng Sub UkrEng [Hurtom].
Format :
Format version : Version 4 / Version 2
File size : 29.3 GiB
Duration : 2 h 2 min
Overall bit rate mode : Variable
Overall bit rate : 34.2 Mb/s
Movie name : Індіана Джонс і Королівство Кришталевого Черепа / Indiana Jones and the Kingdom of the Crystal Skull (2008) Remux 1080p 2хUkr/Eng | Sub Ukr/Eng [Hurtom]
Encoded date : UTC 2019-06-16 23:26:27
Writing application : v25.0.0 ('Prog Noir') 64-bit
Writing library : libebml v1.3.6 + v1.4.9

Video
ID : 1
Format : AVC
Format/Info : Advanced Video Codec
Format profile : [email protected]
Format settings, CABAC : Yes
Format settings, RefFrames : 4 frames
Codec ID : V_MPEG4/ISO/AVC
Duration : 2 h 2 min
Bit rate mode : Variable
Bit rate : 31.2 Mb/s
Maximum bit rate : 37.0 Mb/s
Width : 1 920 pixels
Height : 1 080 pixels
Display aspect ratio : 16:9
Frame rate mode : Constant
Frame rate : 23.976 (24000/1001) FPS
Color space : YUV
Chroma subsampling : 4:2:0
Bit depth : 8 bits
Scan type : Progressive
Bits/(Pixel*Frame) : 0.627
Stream size : 26.7 GiB (91%)
Title : Indiana Jones and the Kingdom of the Crystal Skull (2008) Remux 1080p 2хUkr/Eng | Sub Ukr/Eng [Hurtom]
Language : Ukrainian
Default : Yes
Forced : Yes
Color range : Limited
Color primaries : BT.709
Transfer characteristics : BT.709
Matrix coefficients : BT.709

Audio #1
ID : 2
Format : AC-3
Format/Info : Audio Coding 3
Format settings, Endianness : Big
Codec ID : A_AC3
Duration : 2 h 2 min
Bit rate mode : Constant
Bit rate : 448 kb/s
Channel(s) : 6 channels
Channel positions : Front: L C R, Side: L R, LFE
Sampling rate : 48.0 kHz
Frame rate : 31.250 FPS (1536 SPF)
Bit depth : 16 bits
Compression mode : Lossy
Stream size : 393 MiB (1%)
Title : DUB [Postmodern] 5.1 | ліцензія R5
Language : Ukrainian
Service kind : Complete Main
Default : Yes
Forced : Yes

Audio #2
ID : 3
Format : AC-3
Format/Info : Audio Coding 3
Format settings, Endianness : Big
Codec ID : A_AC3
Duration : 2 h 2 min
Bit rate mode : Constant
Bit rate : 192 kb/s
Channel(s) : 2 channels
Channel positions : Front: L R
Sampling rate : 48.0 kHz
Frame rate : 31.250 FPS (1536 SPF)
Bit depth : 16 bits
Compression mode : Lossy
Stream size : 168 MiB (1%)
Title : MVO [НОВИЙ] 2.0
Language : Ukrainian
Service kind : Complete Main
Default : No
Forced : No

Audio #3
ID : 4
Format : TrueHD
Codec ID : A_TRUEHD
Duration : 2 h 2 min
Bit rate mode : Variable
Bit rate : 1 654 kb/s
Maximum bit rate : 3 069 kb/s
Channel(s) : 6 channels
Channel positions : Front: L C R, Side: L R, LFE
Sampling rate : 48.0 kHz
Frame rate : 1 200.000 FPS (40 SPF)
Compression mode : Lossless
Stream size : 1.42 GiB (5%)
Title : Original TrueHD 5.1
Language : English
Default : No
Forced : No

Audio #4
ID : 5
Format : AC-3
Format/Info : Audio Coding 3
Format settings, Endianness : Big
Codec ID : A_AC3
Duration : 2 h 2 min
Bit rate mode : Constant
Bit rate : 640 kb/s
Channel(s) : 6 channels
Channel positions : Front: L C R, Side: L R, LFE
Sampling rate : 48.0 kHz
Frame rate : 31.250 FPS (1536 SPF)
Bit depth : 16 bits
Compression mode : Lossy
Stream size : 561 MiB (2%)
Title : Original 5.1
Language : English
Service kind : Complete Main
Default : No
Forced : No

Text #1
ID : 6
Format : PGS
Muxing mode : zlib
Codec ID : S_HDMV/PGS
Codec ID/Info : Picture based subtitle format used on BDs/HD-DVDs
Duration : 2 h 1 min
Bit rate : 24.6 kb/s
Count of elements : 2108
Stream size : 21.4 MiB (0%)
Title : Ukr (Full)
Language : Ukrainian
Default : Yes
Forced : No

Text #2
ID : 7
Format : PGS
Muxing mode : zlib
Codec ID : S_HDMV/PGS
Codec ID/Info : Picture based subtitle format used on BDs/HD-DVDs
Duration : 1 h 54 min
Bit rate : 27.3 kb/s
Count of elements : 2094
Stream size : 22.5 MiB (0%)
Title : Eng (Full)
Language : English
Default : No
Forced : No

Text #3
ID : 8
Format : UTF-8
Codec ID : S_TEXT/UTF8
Codec ID/Info : UTF-8 Plain Text
Duration : 1 h 55 min
Bit rate : 44 b/s
Count of elements : 1191
Stream size : 38.0 KiB (0%)
Title : Eng (SDH)
Language : English
Default : No
Forced : No
Скріншоти
Джерело: &
За синхронізацію подяка панам: urij546724, Vasua95, jonas9За , за запис звуку з Нового каналу п.karvai0
За українізовану обкладинку подяка п.Chelios.
Особиста оцінка: 10 - без зайвих вагань рекомендую всім!




Золотий реліз (завантажене не впливає на рейтинг)
 Трекер:    Зареєстрований   

Завантажити / скачати фільм українською



відео для новачків



 Зареєстрований:   2019-06-18 00:33
 Розмір:   29.26 GB 
 Оцінка фільму:   9.8/10 (Голосів: 11)
   
serjmerj 
Новенький


З нами з: 17.12.18
Востаннє: 22.09.20
Повідомлень: 1

2020-04-25 11:04  
Будь ласка, поверніться на роздачу! Дякую!
Ваш часовий пояс: GMT + 2 Години

Нова тема   Відповісти