Дорога додому 2: Загублені в Сан-Франциско / Homeward Bound II: Lost in San Francisco (1996) 720p Ukr/Eng | Sub Eng

Нові коментарі

Нова тема   Відповісти
Автор Повідомлення
Anonymous 







2019-06-17 23:15  
Дорога додому 2: Загублені в Сан-Франциско / Homeward Bound II: Lost in San Francisco (1996) 720p Ukr/Eng | Sub Eng

Дорога додому 2: Загублені в Сан-Франциско / Homeward Bound II: Lost in San Francisco (1996) 720p Ukr/Eng | Sub Eng


Жанр: пригодницький, комедія, сімейний, романтичний
Країна: США



Кінокомпанія: Walt Disney Pictures, City Dogs Productions
Режисер: Девід Р. Елліс
Актори: Майкл Джей Фокс, Саллі Філд, Ральф Вейт, Аль Майклз, Томмі Ласорда та інші

Сюжет:
Трійця звірів, що вміють розмовляти, повертається для нової пригоди! Якщо раніше їм доводилося подорожувати по горах і пустелях, то тепер дратівливий пес Шанс, розпещена кішка Сессі і чарівний ретривер Тінь загубилися у вируючому Сан - Франциско! З цілою зграєю знайомих дворняг спритна трійця прокладає шлях через міські джунглі додому, до улюбленої сім'ї.
Англомовний трейлер:


Рейтинг MPAA: G - немає вікових обмежень
Вікова категорія: 6+

Тривалість: 01:28:43
Якість: 720p

Відео:
кодек:
розмір кадру: 1280 х 690
бітрейт: 4164 кб/с

Аудіо #1:
мова: українська
переклад: багатоголосий закадровий | студія LeDoyen
кодек: 2.0 [стерео]
бітрейт: 192 кб/с
Інформація про озвучення
Аудіо #2:
мова: англійська
переклад: оригінал
кодек: 5.1
бітрейт: 384 кб/с

Субтитри:
мова: англійська
тип: програмні (м'які)
формат: *.srt
Info
Код:
Complete name               : Homeward Bound II Lost in San Francisco (1996) [Ukr,Eng sub.Eng] 720p [Hurtom].
Format                      :
Format version              : Version 4
File size                   : 2.94 GiB
Duration                    : 1 h 28 min
Overall bit rate mode       : Variable
Overall bit rate            : 4 743 kb/s
Movie name                  : Дорога додому 2: Загублені в Сан-Франциско / Homeward Bound II: Lost in San Francisco (1996) [Ukr,Eng sub.Eng] 720p [Hurtom]
Encoded date                : UTC 2019-06-17 20:29:11
Writing application         : v34.0.0 ('Sight and Seen') 64-bit
Writing library             : libebml v1.3.7 + v1.5.0
Cover                       : Yes
Attachments                 : cover.jpg

Video
ID                          : 1
Format                      : AVC
Format/Info                 : Advanced Video Codec
Format profile              : [email protected]
Format settings             : CABAC / 2 Ref Frames
Format settings, CABAC      : Yes
Format settings, Reference  : 2 frames
Codec ID                    : V_MPEG4/ISO/AVC
Duration                    : 1 h 28 min
Bit rate mode               : Variable
Bit rate                    : 4 164 kb/s
Maximum bit rate            : 768 kb/s
Width                       : 1 280 pixels
Height                      : 690 pixels
Display aspect ratio        : 1.85:1
Frame rate mode             : Constant
Frame rate                  : 23.976 (23976/1000) FPS
Original frame rate         : 23.976 (24000/1001) FPS
Color space                 : YUV
Chroma subsampling          : 4:2:0
Bit depth                   : 8 bits
Scan type                   : Progressive
Bits/(Pixel*Frame)          : 0.197
Stream size                 : 2.58 GiB (88%)
Title                       : Дорога додому 2: Загублені в Сан-Франциско / Homeward Bound II: Lost in San Francisco (1996) 720p
Language                    : English
Default                     : Yes
Forced                      : No

Audio #1
ID                          : 2
Format                      : AC-3
Format/Info                 : Audio Coding 3
Commercial name             : Dolby Digital
Codec ID                    : A_AC3
Duration                    : 1 h 28 min
Bit rate mode               : Constant
Bit rate                    : 192 kb/s
Channel(s)                  : 2 channels
Channel layout              : L R
Sampling rate               : 48.0 kHz
Frame rate                  : 31.250 FPS (1536 SPF)
Bit depth                   : 16 bits
Compression mode            : Lossy
Stream size                 : 122 MiB (4%)
Title                       : MVO [LeDoyen], 2.0 [stereo] 192 Kbps
Language                    : Ukrainian
Service kind                : Complete Main
Default                     : Yes
Forced                      : No

Audio #2
ID                          : 3
Format                      : AC-3
Format/Info                 : Audio Coding 3
Commercial name             : Dolby Digital
Codec ID                    : A_AC3
Duration                    : 1 h 28 min
Bit rate mode               : Constant
Bit rate                    : 384 kb/s
Channel(s)                  : 6 channels
Channel layout              : L R C LFE Ls Rs
Sampling rate               : 48.0 kHz
Frame rate                  : 31.250 FPS (1536 SPF)
Bit depth                   : 16 bits
Compression mode            : Lossy
Stream size                 : 244 MiB (8%)
Title                       : Original, 5.1 384 Kbps
Language                    : English
Service kind                : Complete Main
Default                     : No
Forced                      : No

Text
ID                          : 4
Format                      : UTF-8
Codec ID                    : S_TEXT/UTF8
Codec ID/Info               : UTF-8 Plain Text
Duration                    : 1 h 22 min
Bit rate                    : 87 b/s
Count of elements           : 1357
Stream size                 : 53.3 KiB (0%)
Language                    : English
Default                     : No
Forced                      : No


Джерело: &
Подяка NemoInFire за доріжку.



Срібний реліз (на рейтинг впливає 50% завантаженого)
 Трекер:    Зареєстрований   

Завантажити / скачати фільм українською



відео для новачків



 Зареєстрований:   2019-06-17 23:39
 Розмір:   2.94 GB 
 Оцінка фільму:   10/10 (Голосів: 4)
   
Ваш часовий пояс: GMT + 2 Години

Нова тема   Відповісти