Джіа / Gia [Unrated] (1998) 720p Ukr/Eng | Sub Eng

Нові коментарі

Нова тема   Відповісти
Автор Повідомлення
Anonymous 







2019-06-17 21:10  
Джіа / Gia [Unrated] (1998) 720p Ukr/Eng | Sub Eng

Джіа / Gia [Unrated] (1998) 720p Ukr/Eng | Sub Eng


Жанр: біографічний, драма
Країна: США



Кінокомпанія: Citadel Entertainment
Режисер: Майкл Крістофер / Michael Cristofer
Актори: Анджеліна Джолі / Angelina Jolie, Елізабет Мітчелл / Elizabeth Mitchell, Ерік Майкл Коул / Eric Michael Cole, Тревіс Кайлі / Travis Kylie, Фей Данавей / Faye Dunaway, Луї Джіамбалво / Louis Giambalvo

Сюжет:
Заснована на реальних подіях історія всесвітньо відомої супер-моделі на ім'я Джіа Марі Каранджі. В кінці сімдесятих цю жінку називали королевою світового подіуму. До цього вона була звичайною дівчиною, яка працювала посудомийкою в занедбаному кафе на околицях міста.

Цікавим фактом є те, що Анджеліна Джолі дуже довго відхиляла роль Джії, посилаючись на те, що за її словами, життя Джії було дуже схоже на її власне.


Тривалість: 02:05:07
Якість: 720p
Відео:
кодек:
розмір кадру: 1280х720
бітрейт: 7876 кб/с

Аудіо # 1:
мова: українська
переклад: двоголосий закадровий ,
кодек: 2.0
бітрейт: 192 кб/с

Аудіо # 2:
мова: англійська
переклад: оригінал
кодек: 5.1
бітрейт: 640 кб/с

Субтитри:
мова: англійська
тип: програмні (м'які)
формат: *.srt
Info
General
Unique ID : 230006498076149691300932664450506085375 (0xAD09A3E4770E48789ADAD9B07B1CD3FF)
Format :
Format version : Version 4
File size : 7.77 GiB
Duration : 2 h 5 min
Overall bit rate : 8 885 kb/s
Encoded date : UTC 2019-06-17 18:00:28
Writing application : v6.1.0 ('Old Devil') built on Mar 4 2013 09:10:42
Writing library : libebml v1.3.0 + v1.4.0

Video
ID : 1
Format : AVC
Format/Info : Advanced Video Codec
Format profile : [email protected]
Format settings : CABAC / 9 Ref Frames
Format settings, CABAC : Yes
Format settings, RefFrames : 9 frames
Codec ID : V_MPEG4/ISO/AVC
Duration : 2 h 5 min
Bit rate : 7 876 kb/s
Width : 1 280 pixels
Height : 720 pixels
Display aspect ratio : 16:9
Frame rate mode : Constant
Frame rate : 23.976 (24000/1001) FPS
Color space : YUV
Chroma subsampling : 4:2:0
Bit depth : 8 bits
Scan type : Progressive
Bits/(Pixel*Frame) : 0.356
Stream size : 6.88 GiB (89%)
Writing library : core 142 r2431 ac76440
Encoding settings : cabac=1 / ref=9 / deblock=1:-1:-1 / analyse=0x3:0x113 / me=umh / subme=10 / psy=1 / psy_rd=1.00:0.15 / mixed_ref=1 / me_range=32 / chroma_me=1 / trellis=2 / 8x8dct=1 / cqm=0 / deadzone=21,11 / fast_pskip=1 / chroma_qp_offset=-3 / threads=6 / lookahead_threads=1 / sliced_threads=0 / nr=0 / decimate=1 / interlaced=0 / bluray_compat=0 / constrained_intra=0 / bframes=8 / b_pyramid=2 / b_adapt=2 / b_bias=0 / direct=3 / weightb=1 / open_gop=0 / weightp=2 / keyint=230 / keyint_min=23 / scenecut=40 / intra_refresh=0 / rc_lookahead=40 / rc=crf / mbtree=0 / crf=20.5 / qcomp=0.60 / qpmin=0 / qpmax=69 / qpstep=4 / vbv_maxrate=50000 / vbv_bufsize=62500 / crf_max=0.0 / nal_hrd=none / filler=0 / ip_ratio=1.40 / pb_ratio=1.30 / aq=1:1.00
Language : English
Default : Yes
Forced : No

Audio #1
ID : 2
Format : AC-3
Format/Info : Audio Coding 3
Commercial name : Dolby Digital
Codec ID : A_AC3
Duration : 2 h 5 min
Bit rate mode : Constant
Bit rate : 192 kb/s
Channel(s) : 2 channels
Channel layout : L R
Sampling rate : 48.0 kHz
Frame rate : 31.250 FPS (1536 SPF)
Bit depth : 16 bits
Compression mode : Lossy
Stream size : 172 MiB (2%)
Title : UKR (KINO) - «Стар Майстер»
Language : Ukrainian
Service kind : Complete Main
Default : Yes
Forced : Yes

Audio #2
ID : 3
Format : AC-3
Format/Info : Audio Coding 3
Commercial name : Dolby Digital
Codec ID : A_AC3
Duration : 2 h 5 min
Bit rate mode : Constant
Bit rate : 640 kb/s
Channel(s) : 6 channels
Channel layout : L R C LFE Ls Rs
Sampling rate : 48.0 kHz
Frame rate : 31.250 FPS (1536 SPF)
Bit depth : 16 bits
Compression mode : Lossy
Stream size : 573 MiB (7%)
Title : ENG
Language : English
Service kind : Complete Main
Default : No
Forced : No

Text
ID : 4
Format : UTF-8
Codec ID : S_TEXT/UTF8
Codec ID/Info : UTF-8 Plain Text
Title : ENG
Language : English
Default : No
Forced : No

Menu
00:00:00.000 : en:Chapter 01
00:05:38.337 : en:Chapter 02
00:15:26.801 : en:Chapter 03
00:21:31.957 : en:Chapter 04
00:31:38.645 : en:Chapter 05
00:36:43.908 : en:Chapter 06
00:46:22.237 : en:Chapter 07
00:56:36.475 : en:Chapter 08
01:04:55.599 : en:Chapter 09
01:15:12.630 : en:Chapter 10
01:23:40.180 : en:Chapter 11
01:33:43.117 : en:Chapter 12
01:41:02.389 : en:Chapter 13
01:47:55.468 : en:Chapter 14
01:58:27.725 : en:Chapter 15
Скріншоти





Велика подяка dvorsky і _oles за звукову доріжку, та olgaya за українізований постер
Особиста подяка пану denixx за надану матеріальну допомогу на підтримку цього і майбутніх релізів.
Джерело:


Срібний реліз (на рейтинг впливає 50% завантаженого)
 Трекер:    Зареєстрований   

Завантажити / скачати фільм українською



відео для новачків



 Зареєстрований:   2019-06-17 21:10
 Розмір:   7.77 GB 
 Оцінка фільму:   10/10 (Голосів: 3)
   
Інші релізи
   Джіа / Gia [Unrated] (1998) Ukr/Eng | Sub Eng _oles  5 / 0   2.18 GB   2014-04-10 11:05 
dikanka 
Новенький


З нами з: 13.10.10
Востаннє: 10.09.20
Повідомлень: 13

2019-07-11 19:45  
Спойлер
блін у 26 років це просто ппц, жити та жити... жалко джіу но сама винувата

Ваш часовий пояс: GMT + 2 Години

Нова тема   Відповісти