Ворог біля воріт / Enemy at the Gates (2001) 1080p 2xUkr/Eng | Sub Eng

Нові коментарі

Нова тема   Відповісти
Автор Повідомлення
Anonymous 







2019-06-16 07:07  
Ворог біля воріт / Enemy at the Gates (2001) 1080p 2xUkr/Eng | Sub Eng

Ворог біля воріт / Enemy at the Gates (2001) 1080p 2xUkr/Eng | Sub Eng


Жанр: бойовик, трилер, драма, військовий, історія
Країна: Німеччина, США, Великобританія, Ірландія



Кінокомпанія: Paramount Pictures
Режисер: Жан-Жак Анно
Актори: Джуд Лоу, Ед Харріс, Рейчел Вайс, Джозеф Файнс, Боб Хоськінс, Рон Перлман, Єва Маттес, Гебрієл Томсон, Матіас Хабіх, Софі Роїз

Сюжет:
1942 рік, розпал Сталінградської битви. Німецьке командування направляє на передову свого кращого стрільця, майора Кеніга, з особливим завданням. Він єдиний, хто може спробувати впоратися з російським «ангелом смерті» - невловимим снайпером Василем Зайцевим. Зайцев - легенда і ікона для захисників Сталінграду. Між двома унікальними снайперами починається смертельна сутичка, переможцем з якої вийти лише одному.


Тривалість: 02:10:54
Якість: 1080p
Відео:
кодек:
розмір кадру: 1920х1080
бітрейт: 6 296 кб/с

Аудіо # 1:
мова: українська
переклад: професійний дубльований
кодек: 2.0
бітрейт: 192 кб/с

Аудіо # 2:
мова: українська
переклад: багатоголосий закадровий
кодек: 2.0 (з 5.1)
бітрейт: 192 кб/с

Аудіо # 3:
мова: англійська
переклад: оригінал
кодек: 5.1
бітрейт: 384 кб/с

Субтитри:
мова: англійська
тип: програмні (м'які)
формат: *.srt
Info
General
Unique ID : 215999350658848381889006622075510365842 (0xA27FF6349B326D2984742C85D8DC9E92)
Format :
Format version : Version 4
File size : 6.46 GiB
Duration : 2 h 10 min
Overall bit rate : 7 064 kb/s
Movie name : Enemy at the Gates (2001)
Encoded date : UTC 2019-06-16 04:00:46
Writing application : v6.1.0 ('Old Devil') built on Mar 4 2013 09:10:42
Writing library : libebml v1.3.0 + v1.4.0

Video
ID : 1
Format : AVC
Format/Info : Advanced Video Codec
Format profile : [email protected]
Format settings : CABAC / 4 Ref Frames
Format settings, CABAC : Yes
Format settings, RefFrames : 4 frames
Codec ID : V_MPEG4/ISO/AVC
Duration : 2 h 10 min
Bit rate : 6 296 kb/s
Width : 1 920 pixels
Height : 1 080 pixels
Display aspect ratio : 16:9
Frame rate mode : Constant
Frame rate : 23.976 FPS
Color space : YUV
Chroma subsampling : 4:2:0
Bit depth : 8 bits
Scan type : Progressive
Bits/(Pixel*Frame) : 0.127
Stream size : 5.63 GiB (87%)
Title : Release by AlexKa
Writing library : core 122 r2184 5c85e0a
Encoding settings : cabac=1 / ref=4 / deblock=1:0:0 / analyse=0x3:0x133 / me=umh / subme=10 / psy=1 / psy_rd=1.00:0.10 / mixed_ref=1 / me_range=32 / chroma_me=1 / trellis=2 / 8x8dct=1 / cqm=0 / deadzone=21,11 / fast_pskip=0 / chroma_qp_offset=-3 / threads=12 / sliced_threads=0 / nr=0 / decimate=0 / interlaced=0 / bluray_compat=0 / constrained_intra=0 / bframes=5 / b_pyramid=2 / b_adapt=2 / b_bias=0 / direct=3 / weightb=1 / open_gop=0 / weightp=2 / keyint=240 / keyint_min=23 / scenecut=40 / intra_refresh=0 / rc_lookahead=60 / rc=2pass / mbtree=1 / bitrate=6296 / ratetol=1.0 / qcomp=0.60 / qpmin=0 / qpmax=69 / qpstep=4 / cplxblur=20.0 / qblur=0.5 / ip_ratio=1.40 / aq=1:1.00
Language : English
Default : No
Forced : No

Audio #1
ID : 2
Format : AC-3
Format/Info : Audio Coding 3
Commercial name : Dolby Digital
Codec ID : A_AC3
Duration : 2 h 10 min
Bit rate mode : Constant
Bit rate : 192 kb/s
Channel(s) : 2 channels
Channel layout : L R
Sampling rate : 48.0 kHz
Frame rate : 31.250 FPS (1536 SPF)
Bit depth : 16 bits
Compression mode : Lossy
Stream size : 180 MiB (3%)
Title : UKR (Inter) - Дубльований переклад
Language : Ukrainian
Service kind : Complete Main
Default : Yes
Forced : Yes

Audio #2
ID : 3
Format : AC-3
Format/Info : Audio Coding 3
Commercial name : Dolby Digital
Codec ID : A_AC3
Duration : 2 h 10 min
Bit rate mode : Constant
Bit rate : 192 kb/s
Channel(s) : 2 channels
Channel layout : L R
Sampling rate : 48.0 kHz
Frame rate : 31.250 FPS (1536 SPF)
Bit depth : 16 bits
Compression mode : Lossy
Stream size : 180 MiB (3%)
Title : UKR (ICTV)
Language : Ukrainian
Service kind : Complete Main
Default : No
Forced : No

Audio #3
ID : 4
Format : AC-3
Format/Info : Audio Coding 3
Commercial name : Dolby Digital
Codec ID : A_AC3
Duration : 2 h 10 min
Bit rate mode : Constant
Bit rate : 384 kb/s
Channel(s) : 6 channels
Channel layout : L R C LFE Ls Rs
Sampling rate : 48.0 kHz
Frame rate : 31.250 FPS (1536 SPF)
Bit depth : 16 bits
Compression mode : Lossy
Stream size : 360 MiB (5%)
Title : ENG
Language : English
Service kind : Complete Main
Default : No
Forced : No

Text
ID : 5
Format : UTF-8
Codec ID : S_TEXT/UTF8
Codec ID/Info : UTF-8 Plain Text
Title : Eng
Language : English
Default : No
Forced : No

Menu
00:00:00.000 : :Chapter 01
00:02:47.875 : :Chapter 02
00:09:48.796 : :Chapter 03
00:15:12.369 : :Chapter 04
00:22:10.996 : :Chapter 05
00:34:14.217 : :Chapter 06
00:37:09.268 : :Chapter 07
00:46:19.818 : :Chapter 08
00:50:45.791 : :Chapter 09
00:56:06.612 : :Chapter 10
01:02:41.840 : :Chapter 11
01:08:25.015 : :Chapter 12
01:16:47.769 : :Chapter 13
01:22:37.493 : :Chapter 14
01:29:50.591 : :Chapter 15
01:35:52.997 : :Chapter 16
01:42:06.078 : :Chapter 17
01:55:03.395 : :Chapter 18
01:57:28.248 : :Chapter 19
02:01:21.231 : :Chapter 20
Скріншоти






За українські доріжки дякую п. Breniak, Romario_O, Xottabi4, Bohdan237, Arsenfpu
Особиста подяка пану denixx за надану матеріальну допомогу на підтримку цього і майбутніх релізів.
Джерело:


Срібний реліз (на рейтинг впливає 50% завантаженого)
 Трекер:    Зареєстрований   

Завантажити / скачати фільм українською



відео для новачків



 Зареєстрований:   2019-06-16 07:07
 Розмір:   6.46 GB 
 Оцінка фільму:   10/10 (Голосів: 3)
   
Інші релізи
Ваш часовий пояс: GMT + 2 Години

Нова тема   Відповісти