Міккі та круті перегони / Mickey and the Roadster Racers (Сезон 1) (2017) 720p Ukr/Eng

Нові коментарі

Нова тема   Відповісти
Автор Повідомлення
sergiyko.5 
Забанено
Забанено


З нами з: 25.02.16
Востаннє: 29.10.20
Повідомлень: 3648

2019-06-15 20:19  


Міккі та круті перегони / Mickey and the Roadster Racers (Сезон 1) (2017) 720p Ukr/Eng

Міккі та круті перегони / Mickey and the Roadster Racers (Сезон 1) (2017) 720p Ukr/Eng

Жанр: пригоди, сімейний
Країна: США, Південна Корея
Компанія: Disney Television Animation
Режисер: Філл Вайнштайн

Сюжет:
У містечку, що завжди славилося тишею та спокоєм, раптово всі місцеві жителі вирішили змінити колишнє життя. Вони закинули пішохідні прогулянки, віддавши перевагу швидкісним перегонам на спеціальних родстерах. Міккі Маус, зацікавившись усім цим, не тільки створює власний унікальний автомобіль, але й відкриває власну майстерню. І поки він зайнятий своїм родстером, Мінні роз'їжджає на машині, яка нагадує рожевий бант. Дональд катається на авто у вигляді човна, а Гуффі поєднав приємне з корисним, встановивши ванну на колеса. З кожним днем ​​таких оригінальних машин у містечку стає більше. В якийсь момент городянам приходить в голову думка організувати гонки. І звична дорога додому перетворюється на справжній гоночний трек, а перехожі стають вболівальниками. Хочете дізнатися, хто ж стане кращим гонщиком?




Тривалість: 1 серія: 21:30 (цілком серій: 26 з 26)
Якість:

Відео: кодек: розмір кадру: 1280 х 720 бітрейт: 3400 кб/с
Аудіо # 1: мова: українська переклад: професійний дубльований кодек: 2.0 бітрейт: 192 кб/с
Озвучення:
Аудіо # 2: мова: англійська переклад: оригінал кодек: 2.0 бітрейт: 192 кб/с

Примітка: українська доріжка записана з супутникової трансляції і синхронізована під HD відео, звук не розтягувався і не змінювався тон.
Перелік серій
01 Mickeys Wild Tire-Sittin Kitty
02 Goofy Gas-Little Big Ape
03 Race For The Rigatoni Ribbon-Roaming Around Rome
04 Mickeys Perfecto Day-Running Of The Roadsters
05 Agent Double-O-Goof-Egg-xasperating
06 Its Wiki Wiki Time-Happy Hula Helpers
07.Ye Olde Royal Heist-Tea Time Trouble
08.Guru Goofy-Bed Breakfast And Bungled
09.Abra-ka-Goof-Happy Birthday Helpers
10.Going Up-Gone Fishin
11.The Impossible Race-The Happiest Helpers Cruise
12.The Haunted Hot Rod-Petes Ghostly Gala
13.Good Luck Charm-Teed Off
14.Daredevil Goofy-The Big Broadcast
15.Smarty Goof-Adventures In Buddysitting
16.Stop that Heist-Lights Camera Help
17.Mouse vs Machine-Grandpa Beagles Day Out
18.Donalds Garage-Artful Helpers
19.The Grand Food Truck Rally-Cuckoo La La
20.Ready Get Pet Go Pluto-Figaros New Friend
21.Garage Alone-Camp Happy Helpers
22.Billy Beagles Tip Top Garage-Diner Dog Rescue
23.Pit Stop and Go-Alarm on the Farm
24.Hot Dog Daze Afternoon-Super Sweet Helpers
25.Rockin Roadsters-Safari So Goody
26.Happy Hot Diggity Dog Holiday-Happy Holiday Helpers
Про файл:
General
Unique ID : 85793613027160125923030748973303218887 (0x408B3FB3C1AFBA589663F087D09E42C7)
Complete name : G:\Torrents2\MULT\MuSERIAL\Mickey and the Roadster Racers S01 720p \S01E01.Mickeys Wild Tire-Sittin Kitty.720p..
Format :
Format version : Version 4
File size : 593 MiB
Duration : 21 min 36 s
Overall bit rate : 3 840 kb/s
Movie name : Mickey and the Roadster Racers S01 720p by sergiyko
Encoded date : UTC 2019-06-15 13:25:26
Writing application : v34.0.0 ('Sight and Seen') 64-bit
Writing library : libebml v1.3.7 + v1.5.0

Video
ID : 1
Format : AVC
Format/Info : Advanced Video Codec
Format profile : [email protected]
Format settings : CABAC / 2 Ref Frames
Format settings, CABAC : Yes
Format settings, Reference : 2 frames
Codec ID : V_MPEG4/ISO/AVC
Duration : 21 min 36 s
Bit rate : 3 360 kb/s
Width : 1 280 pixels
Height : 720 pixels
Display aspect ratio : 16:9
Frame rate mode : Constant
Frame rate : 25.000 FPS
Original frame rate : 24.000 FPS
Color space : YUV
Chroma subsampling : 4:2:0
Bit depth : 8 bits
Scan type : Progressive
Bits/(Pixel*Frame) : 0.146
Stream size : 534 MiB (90%)
Title : S01E01.Mickeys Wild Tire-Sittin Kitty
Writing library : core 148 r2579M 73ae2d1
Encoding settings : cabac=1 / ref=2 / deblock=1:0:0 / analyse=0x3:0x113 / me=hex / subme=2 / psy=1 / psy_rd=1.00:0.00 / mixed_ref=0 / me_range=16 / chroma_me=1 / trellis=0 / 8x8dct=1 / cqm=0 / deadzone=21,11 / fast_pskip=1 / chroma_qp_offset=0 / threads=4 / lookahead_threads=1 / sliced_threads=0 / nr=250 / decimate=1 / interlaced=0 / bluray_compat=0 / stitchable=1 / constrained_intra=0 / bframes=0 / weightp=1 / keyint=250 / keyint_min=24 / scenecut=40 / intra_refresh=0 / rc_lookahead=10 / rc=2pass / mbtree=1 / bitrate=3360 / ratetol=1.0 / qcomp=0.60 / qpmin=5 / qpmax=69 / qpstep=4 / cplxblur=20.0 / qblur=0.5 / ip_ratio=1.40 / aq=1:1.00
Language : English
Default : Yes
Forced : No

Audio #1
ID : 2
Format : AC-3
Format/Info : Audio Coding 3
Commercial name : Dolby Digital
Codec ID : A_AC3
Duration : 21 min 36 s
Bit rate mode : Constant
Bit rate : 192 kb/s
Channel(s) : 2 channels
Channel layout : L R
Sampling rate : 48.0 kHz
Frame rate : 31.250 FPS (1536 SPF)
Bit depth : 16 bits
Compression mode : Lossy
Stream size : 29.7 MiB (5%)
Title : DUB 2ch | ПлюсПлюс
Language : Ukrainian
Service kind : Complete Main
Default : Yes
Forced : Yes

Audio #2
ID : 3
Format : AC-3
Format/Info : Audio Coding 3
Commercial name : Dolby Digital
Codec ID : A_AC3
Duration : 21 min 36 s
Bit rate mode : Constant
Bit rate : 192 kb/s
Channel(s) : 2 channels
Channel layout : L R
Sampling rate : 48.0 kHz
Frame rate : 31.250 FPS (1536 SPF)
Bit depth : 16 bits
Compression mode : Lossy
Stream size : 29.7 MiB (5%)
Language : English
Service kind : Complete Main
Default : No
Forced : No
Скріншоти:


Запис/зведення: sergiyko


Бронзовий реліз (на рейтинг впливає 75% завантаженого)
 Трекер:    Зареєстрований   

Завантажити / скачати мультфільм українською



відео для новачків



 Зареєстрований:   2019-07-31 21:45
 Розмір:   15.05 GB 
 Оцінка мультсеріалу:   10/10 (Голосів: 5)
   
sergiyko.5 
Забанено
Забанено


З нами з: 25.02.16
Востаннє: 29.10.20
Повідомлень: 3648

2019-07-31 21:45  
Торент оновлено. Сезон повний. Приємного перегляду!
Ваш часовий пояс: GMT + 2 Години

Нова тема   Відповісти