Вам лист / You've Got Mail (1998) 720p 2xUkr/Eng | Sub Eng

Нові коментарі

Нова тема   Відповісти
Автор Повідомлення
Anonymous 







2019-06-15 11:50  
Вам лист / You've Got Mail (1998) 720p 2xUkr/Eng | Sub Eng

Вам лист / You've Got Mail (1998) 720p 2xUkr/Eng | Sub Eng


Жанр: комедія, мелодрама
Країна: США



Кінокомпанія: Warner Bros. Pictures Co.
Режисер: Нора Ефрон / Nora Ephron
Актори: Том Генкс, Мег Раян, Грег Кіннер, Паркер Поузі та інші

Сюжет:
Головна героїня - власниця маленької книгарні, успадкованої від матері. Її головний ворог - власник мережі книжкових супермаркетів, що побудував свій черговий магазин біля її крамнички. Умови нерівні - величезний магазин може дозволити собі суттєві знижки. Між ними майже війна.

Тим часом кожен з цих двох завів роман в Інтернеті. І найдивовижніше, що одне з одним.


Тривалість: 01:59:23
Якість: 720p
Відео:
кодек:
розмір кадру: 1280х720
бітрейт: 5 235 кб/с

Аудіо # 1:
мова: українська
переклад: багатоголосий закадровий
кодек: 5.1
бітрейт: 384 кб/с

Аудіо # 2:
мова: українська
переклад: двоголосий закадровий
кодек: 5.1
бітрейт: 384 кб/с

Аудіо # 3:
мова: англійська
переклад: оригінал
кодек: 5.1
бітрейт: 768 кб/с
Info
General
Unique ID : 225894891824263834617366534550061195268 (0xA9F1C60D96B27B61ACF2BB4CD2922004)
Format :
Format version : Version 4
File size : 5.65 GiB
Duration : 1 h 59 min
Overall bit rate : 6 772 kb/s
Encoded date : UTC 2019-06-15 08:40:18
Writing application : v6.1.0 ('Old Devil') built on Mar 4 2013 09:10:42
Writing library : libebml v1.3.0 + v1.4.0

Video
ID : 1
Format : AVC
Format/Info : Advanced Video Codec
Format profile : [email protected]
Format settings : CABAC / 9 Ref Frames
Format settings, CABAC : Yes
Format settings, RefFrames : 9 frames
Codec ID : V_MPEG4/ISO/AVC
Duration : 1 h 59 min
Bit rate : 5 235 kb/s
Width : 1 280 pixels
Height : 720 pixels
Display aspect ratio : 16:9
Frame rate mode : Constant
Frame rate : 23.976 FPS
Color space : YUV
Chroma subsampling : 4:2:0
Bit depth : 8 bits
Scan type : Progressive
Bits/(Pixel*Frame) : 0.237
Stream size : 4.25 GiB (75%)
Writing library : core 114 r1900 60ef1f8
Encoding settings : cabac=1 / ref=9 / deblock=1:-3:-3 / analyse=0x3:0x113 / me=umh / subme=9 / psy=1 / psy_rd=1.10:0.15 / mixed_ref=1 / me_range=32 / chroma_me=1 / trellis=2 / 8x8dct=1 / cqm=2 / deadzone=21,11 / fast_pskip=0 / chroma_qp_offset=-2 / threads=12 / sliced_threads=0 / nr=0 / decimate=1 / interlaced=0 / constrained_intra=0 / bframes=5 / b_pyramid=2 / b_adapt=2 / b_bias=0 / direct=3 / weightb=1 / open_gop=0 / weightp=2 / keyint=250 / keyint_min=23 / scenecut=40 / intra_refresh=0 / rc_lookahead=60 / rc=2pass / mbtree=1 / bitrate=5235 / ratetol=1.0 / qcomp=0.60 / qpmin=1 / qpmax=63 / qpstep=4 / cplxblur=20.0 / qblur=0.5 / vbv_maxrate=40000 / vbv_bufsize=30000 / nal_hrd=none / ip_ratio=1.40 / aq=1:0.80
Language : English
Default : Yes
Forced : Yes

Audio #1
ID : 2
Format : AC-3
Format/Info : Audio Coding 3
Commercial name : Dolby Digital
Codec ID : A_AC3
Duration : 1 h 59 min
Bit rate mode : Constant
Bit rate : 384 kb/s
Channel(s) : 6 channels
Channel layout : L R C LFE Ls Rs
Sampling rate : 48.0 kHz
Frame rate : 31.250 FPS (1536 SPF)
Bit depth : 16 bits
Compression mode : Lossy
Stream size : 328 MiB (6%)
Title : UKR (Новий)
Language : Ukrainian
Service kind : Complete Main
Default : Yes
Forced : Yes

Audio #2
ID : 3
Format : AC-3
Format/Info : Audio Coding 3
Commercial name : Dolby Digital
Codec ID : A_AC3
Duration : 1 h 59 min
Bit rate mode : Constant
Bit rate : 384 kb/s
Channel(s) : 6 channels
Channel layout : L R C LFE Ls Rs
Sampling rate : 48.0 kHz
Frame rate : 31.250 FPS (1536 SPF)
Bit depth : 16 bits
Compression mode : Lossy
Stream size : 328 MiB (6%)
Title : UKR (1+1)
Language : Ukrainian
Service kind : Complete Main
Default : No
Forced : No

Audio #3
ID : 4
Format :
Format/Info : Digital Theater Systems
Codec ID : A_DTS
Duration : 1 h 59 min
Bit rate mode : Constant
Bit rate : 768 kb/s
Channel(s) : 6 channels
Channel layout : C L R Ls Rs LFE
Sampling rate : 48.0 kHz
Frame rate : 93.750 FPS (512 SPF)
Bit depth : 24 bits
Compression mode : Lossy
Stream size : 656 MiB (11%)
Title : ENG
Language : English
Default : No
Forced : No

Text
ID : 5
Format : UTF-8
Codec ID : S_TEXT/UTF8
Codec ID/Info : UTF-8 Plain Text
Title : ENG
Language : English
Default : No
Forced : No
Скріншоти




За звукові доріжки подяка п.: greg_7, кіномеханік, Skiff
За український постер подяка п. Воїн
Особиста подяка пану denixx за надану матеріальну допомогу на підтримку цього і майбутніх релізів.
Джерело:


Срібний реліз (на рейтинг впливає 50% завантаженого)
 Трекер:    Зареєстрований   

Завантажити / скачати фільм українською



відео для новачків



 Зареєстрований:   2019-06-15 11:50
 Розмір:   5.65 GB 
 Оцінка фільму:   10/10 (Голосів: 4)
   
Інші релізи
   Вам лист / You've Got Mail (1998) AVC 2xUkr/Eng | Sub Eng mutomba  4 / 0   3.46 GB   2017-03-31 23:07 
   Вам лист / You've Got Mail (1998) 1080p 2xUkr/Eng | Sub Eng staf777  1 / 0   14.66 GB   2016-12-27 18:53 
   Вам лист / You've Got Mail (1998) 2xUkr/Eng | Sub Eng Skiff  2 / 1   2.5 GB   2011-07-29 21:21 
   Вам лист / You've Got Mail (1998) Ukr/Eng gazzzzzz  1 / 0   2.18 GB   2011-02-17 15:13 
Ваш часовий пояс: GMT + 2 Години

Нова тема   Відповісти