Молодіжний чемпіонат світу з футболу 2019 (U-20) | Італія - Еквадор | Матч за 3-є місце | (15.06.2019) 720р

Нові коментарі

Нова тема   Відповісти
Останній раз роздавалося user5 (2019-06-23)
Автор Повідомлення
freelancer1987 
Новенький


З нами з: 12.08.10
Востаннє: 26.06.19
Повідомлень: 22

2019-06-15 01:25  
Молодіжний чемпіонат світу з футболу 2019 (U-20) | Італія - Еквадор | Матч за 3-є місце | (15.06.2019) 720р




Матч за третє місце

Італія U-20 - Еквадор U-20


Італія U-20: Карнезеккі — Габбія, Беттела, Раньєрі — Кандела, Альберіко, дель Прато, Еспозіто (Кольпані, 62), Тріпальделлі (Пеллегріні, 82) — Капоне, Горі (Олів`єрі, 62).

Еквадор U-20: Рамірес — Еспіноза (Міна, 60), Поросо, Вальєсілья, Паласіос — Сіфуентес, Альсівар (Лоор, 112) — Плата, Расабала (Кінтеро, 83), Альварадо (Кастільйо, 119) — Кампана.
Результат
Італія U-20 - Еквадор U-20 0:1
Гол: Міна, 104.
Нереалізований пенальті: Олів`єрі, 95
Якість:
Відео:
кодек:
розмір кадру: 1280 x 720
бітрейт: 2794 Кб/с

Аудіо:
мова: українська
переклад: одноголосий закадровий
коментатор: Вадим Шевякін
кодек: 2.0
бітрейт: 191 Кб/с
Звіт Info
General
Complete name : C:\Чемпіонат світу FIFA U-20 2019\Italy vs Equador.mp4
Format : MPEG-4
Format profile : Base Media
Codec ID : isom
File size : 3.96 GiB
Duration : 3h 9mn
Overall bit rate mode : Variable
Overall bit rate : 2 996 Kbps

Video
ID : 1
Format : AVC
Format/Info : Advanced Video Codec
Format profile : [email protected]
Format settings, CABAC : Yes
Format settings, ReFrames : 1 frame
Codec ID : avc1
Codec ID/Info : Advanced Video Coding
Duration : 3h 9mn
Bit rate mode : Variable
Bit rate : 2 800 Kbps
Width : 1 280 pixels
Height : 720 pixels
Display aspect ratio : 16:9
Frame rate mode : Variable
Frame rate : 25.000 fps
Minimum frame rate : 8.333 fps
Maximum frame rate : 25.000 fps
Color space : YUV
Chroma subsampling : 4:2:0
Bit depth : 8 bits
Scan type : Progressive
Bits/(Pixel*Frame) : 0.122
Stream size : 3.69 GiB (93%)

Audio
ID : 2
Format :
Format/Info : Advanced Audio Codec
Format profile : LC
Codec ID : 40
Duration : 3h 9mn
Source duration : 3h 9mn
Bit rate mode : Variable
Bit rate : 192 Kbps
Maximum bit rate : 289 Kbps
Channel(s) : 2 channels
Channel positions : Front: L R
Sampling rate : 44.1 KHz
Compression mode : Lossy
Delay relative to video : 82ms
Stream size : 260 MiB (6%)
Source stream size : 260 MiB (6%)
mdhd_Duration : 11345943
Тривалість
03:09:06
Ріп власний.
Трансляція:

Скріншоти:


 Трекер:    Зареєстрований   

Завантажити / скачати торрент



відео для новачків



 Зареєстрований:   2019-06-15 01:25
 Розмір:   3.96 GB 
 Оцінка:   10/10 (Голосів: 1)
   
Ваш часовий пояс: GMT + 2 Години

Нова тема   Відповісти