Індіана Джонс і Храм Долі / Indiana Jones and the Temple of Doom (1984) Remux 1080p 2хUkr/Eng | Sub Eng

Нові коментарі

Нова тема   Відповісти
Автор Повідомлення
MakRA 
Поважний учасник


З нами з: 11.11.18
Востаннє: 26.06.19
Повідомлень: 246

2019-06-15 01:23  
Індіана Джонс і Храм Долі / Indiana Jones and the Temple of Doom (1984) Remux 1080p 2хUkr/Eng | Sub Eng

Індіана Джонс і Храм Долі / Indiana Jones and the Temple of Doom (1984) Remux 1080p 2хUkr/Eng | Sub Eng

Український постер:


Альтернативні обкладинки і постери:






Жанр: екшн, пригодницький
Країна: США



Кінокомпанія: Paramount Pictures, Lucasfilm Ltd.
Режисер: Стівен Спілберґ [Steven Spielberg]
Актори: Гаррісон Форд [Harrison Ford], Кейт Кепшоу [Kate Capshaw], Амріш Пурі [Amrish Puri], Джонатан Ке Квін [Jonathan Ke Quan], Рой Чао [Roy Chiao], Філіп Стоун [Philip Stone], Девід Іп [David Yip], Рік Янг [Ric Young], Чуа Ка [Chua Kah Joo], Ден Ейкройд [Dan Aykroyd].

Сюжет:
Друга частина неймовірних пригод прославленого археолога і шукача пригод Індіани Джонса. На цей раз безстрашний доктор Джонс відправиться у подорож в серце Гімалаїв разом з ресторанною співачкою Уіллі Скотт і своїм вірним маленьким помічником Коротуном. Тут, серед величних гір, археологові і його супутникам належить зіткнутися з кривавим культом, який поклоняється древній Богині Смерті - Калі. Чи стане Індіана наступним нещасним, загиблим на страшному вівтарі людських жертвопринесень, або йому, як завжди, вдасться вирватися з лап страху і розібратися з лиходіями.

Цікаве про фільм:

-У початкових сценах фільму Харрісон Форд наслідує Хемфрі Богарта.
-У фільмі присутній ресторан «Обі Ван». У фільмі Зоряні війни, звідки взято цей джедай-персонаж, Харрісон Форд грав Хана Соло.
-Потаємна кімната, де знизу і зверху вилазять леза, — це, можливо, відіслання до IV епізоду Зоряних Війн, де в сміттєвому відсіку почали зсуватися стіни.
-Замість аероплана хотіли зняти перегони на мотоциклах по Великій Стіні. Але китайський уряд визнало це блюзнірством.
-Шум вагонеток по рейках був записаний в Діснейленді.
-Роль заморожених мавпячих мізків виконали малиновий соус і заварний крем.
-Сільський шаман розповідав про Індіану камінь Шанкари, називаючи його «Шива Лінга». В індуїстській традиції лінгой називається високий камінь циліндричної форми, що нагадує фалос. Його часто поміщають всередину кола, що символізує юні. Разом ці символи позначають дуалістичну сексуальну енергію бога Шиви.
-Алігаторів знімав продюсер Френк Маршалл особисто. Він знайшов їх у Флориді.
-Харрісон Форд пошкодив спину під час бійки з асасіном. Йому навіть довелося злітати в Лос-Анджелес на операцію. Згодом більшість трюків за Форда виконував каскадер Вік Армстронг.
-Вдруге Форд пошкодив спину, коли боровся з ведмедем. Особливо прикро, що ця сцена згодом була вирізана.
-Під час зйомок канатного мосту більшість кадрів було зроблено з початку мосту, або з його кінця, тому що і Спілберг, і оператор панічно боялися лізти на середину.


Нагороди та номінації:

1985 - Премія Оскар - найкращі спецефекти
1985 - Номінація Оскар - найкраща оригінальна музика


Тривалість: 01:58:28
Якість: Remux 1080p
Відео:
кодек:
розмір кадру: 1920 х 1080
бітрейт: 34,6 Mб/с

Аудіо # 1: на замовлення
мова: українська
переклад: професійний дубльований
кодек: 2.0
бітрейт: 192 кб/с
Про озвучення:
Ролі дублювали:Гаррісон Форд — Михайло Жонін, Анатолій Зіновенко та інші.
Аудіо # 2:
мова: українська
переклад: двоголосий закадровий
кодек: 2.0
бітрейт: 192 кб/с
Про озвучення:
Ролі озвучували:Михайло Жонін і Наталя Ярошенко.
Аудіо # 3:
мова: англійська
переклад: оригінал
кодек: -HD MA 5.1
бітрейт: 4 365 кб/с

Субтитри # 1: (Full)
мова: англійська
тип: пререндерні
формат: *.pgs

Субтитри # 2: (SDH)
мова: англійська
тип: пререндерні
формат: *.pgs
Info
General
Unique ID : 221198011965747928021503810147304559472 (0xA6692FFF3CFB50FE6BC12144B2875370)
Complete name : E:\Пригоди, екшн\Indiana Jones. The Complete Adventures (1981-2008) Remux 1080p\Indiana Jones and the Temple of Doom (1984) Remux 1080p 2хUkrEng Sub Eng [Hurtom].
Format :
Format version : Version 4 / Version 2
File size : 32.5 GiB
Duration : 1 h 58 min
Overall bit rate mode : Variable
Overall bit rate : 39.3 Mb/s
Movie name : Індіана Джонс і Храм Долі / Indiana Jones and the Temple of Doom (1984) Remux 1080p 2хUkr/Eng | Sub Eng [Hurtom]
Encoded date : UTC 2019-06-14 21:02:25
Writing application : v25.0.0 ('Prog Noir') 64-bit
Writing library : libebml v1.3.6 + v1.4.9

Video
ID : 1
Format : AVC
Format/Info : Advanced Video Codec
Format profile : [email protected]
Format settings, CABAC : Yes
Format settings, RefFrames : 4 frames
Codec ID : V_MPEG4/ISO/AVC
Duration : 1 h 58 min
Bit rate mode : Variable
Bit rate : 34.6 Mb/s
Maximum bit rate : 36.0 Mb/s
Width : 1 920 pixels
Height : 1 080 pixels
Display aspect ratio : 16:9
Frame rate mode : Constant
Frame rate : 23.976 (24000/1001) FPS
Color space : YUV
Chroma subsampling : 4:2:0
Bit depth : 8 bits
Scan type : Progressive
Bits/(Pixel*Frame) : 0.695
Stream size : 28.6 GiB (88%)
Title : Indiana Jones and the Temple of Doom (1984) Remux 1080p 2хUkr/Eng | Sub Eng [Hurtom]
Language : Ukrainian
Default : Yes
Forced : Yes

Audio #1
ID : 2
Format : AC-3
Format/Info : Audio Coding 3
Format settings, Endianness : Big
Codec ID : A_AC3
Duration : 1 h 58 min
Bit rate mode : Constant
Bit rate : 192 kb/s
Channel(s) : 2 channels
Channel positions : Front: L R
Sampling rate : 48.0 kHz
Frame rate : 31.250 FPS (1536 SPF)
Bit depth : 16 bits
Compression mode : Lossy
Stream size : 163 MiB (0%)
Title : DUB [ICTV] 2.0 | Студія ТВ+
Language : Ukrainian
Service kind : Complete Main
Default : Yes
Forced : Yes

Audio #2
ID : 3
Format : AC-3
Format/Info : Audio Coding 3
Format settings, Endianness : Big
Codec ID : A_AC3
Duration : 1 h 58 min
Bit rate mode : Constant
Bit rate : 192 kb/s
Channel(s) : 1 channel
Channel positions : Front: C
Sampling rate : 48.0 kHz
Frame rate : 31.250 FPS (1536 SPF)
Bit depth : 16 bits
Compression mode : Lossy
Stream size : 163 MiB (0%)
Title : MVO [НОВИЙ] 2.0
Language : Ukrainian
Service kind : Complete Main
Default : No
Forced : No

Audio #3
ID : 4
Format :
Format/Info : Digital Theater Systems
Format profile : MA / Core
Mode : 16
Format settings, Endianness : Big
Codec ID : A_DTS
Duration : 1 h 58 min
Bit rate mode : Variable / Constant
Bit rate : 4 365 kb/s / 1 509 kb/s
Channel(s) : 6 channels
Channel positions : Front: L C R, Side: L R, LFE
Sampling rate : 48.0 kHz
Frame rate : 93.750 FPS (512 SPF)
Bit depth : 24 bits
Compression mode : Lossless / Lossy
Stream size : 3.61 GiB (11%)
Title : Original -HD MA 5.1
Language : English
Default : No
Forced : No

Text #1
ID : 5
Format : PGS
Muxing mode : zlib
Codec ID : S_HDMV/PGS
Codec ID/Info : Picture based subtitle format used on BDs/HD-DVDs
Duration : 1 h 52 min
Bit rate : 17.7 kb/s
Count of elements : 1734
Stream size : 14.2 MiB (0%)
Title : Eng (Full)
Language : English
Default : No
Forced : No

Text #2
ID : 6
Format : PGS
Muxing mode : zlib
Codec ID : S_HDMV/PGS
Codec ID/Info : Picture based subtitle format used on BDs/HD-DVDs
Duration : 1 h 52 min
Bit rate : 22.3 kb/s
Count of elements : 2234
Stream size : 17.9 MiB (0%)
Title : Eng (SDH)
Language : English
Default : No
Forced : No
Скріншоти
Джерело: &
За синхронізація і зведення подяка панам: urij546724, Vasua95, jonas9За , за запис звуку з Нового каналу п. karvai0
За постер українською подяка п. Musketeer.
Особиста оцінка: 10 - без зайвих вагань рекомендую всім!




Золотий реліз (завантажене не впливає на рейтинг)
 Трекер:    Зареєстрований   

Завантажити / скачати фільм українською



відео для новачків



 Зареєстрований:   2019-06-15 01:23
 Розмір:   32.54 GB 
 Оцінка фільму:   9.9/10 (Голосів: 8)
   
ВАВУНЯ 
VIP


З нами з: 30.06.15
Востаннє: 25.06.19
Повідомлень: 254

2019-06-15 16:38  
на обкладинці Індіана Джонс більше схожий на Челентано, аніж на Форда. ))
Ваш часовий пояс: GMT + 2 Години

Нова тема   Відповісти