Оз: Великий та Могутній / Oz the Great and Powerful (2013) 1080p H.265 Ukr/Eng | Sub Ukr/Eng

Нові коментарі

Нова тема   Відповісти
Автор Повідомлення
Anonymous 







2019-06-14 22:59  
Оз: Великий та Могутній / Oz the Great and Powerful (2013) 1080p H.265 Ukr/Eng | Sub Ukr/Eng

Оз: Великий та Могутній / Oz the Great and Powerful (2013) 1080p H.265 Ukr/Eng | Sub Ukr/Eng


Жанр: фентезі, пригоди, комедія, сімейний
Країна: США
Кінокомпанія: Walt Disney Pictures, Roth Films
Режисер: Сем Реймі
Актори: Міла Куніс, Джеймс Франко, Рейчел Уайз, Мішель Вільямс, Брюс Кемпбелл, Зак Брафф, Джої Кінг, Талія Аківа, Ебігейл Спенсер, Стівен Р. Харт

Сюжет:
Коли ураган закидає циркового фокусника Оскара Діґса із запиленого Канзасу в чарівну країну Оз, схильний до шахрайства циркач вважає, що він піймав удачу за хвіст - адже за допомогою своїх трюків він з легкістю може добути в нових землях і славу і багатство.
Однак його чекає зустріч з трьома чародійками, Теодорою, Еванорою і Глендою, які сумніваються в тому, чи це той великий чарівник, появи якого чекали легковірні жителі країни Оз. Волею-неволею, прибулець виявляється втягнутим у протистояння епічного масштабу, і йому доводиться використовувати весь свій «магічний» арсенал, з додаванням краплинки справжнього чаклунства.
У ситуації вибору між Добром і Злом, Оскару Діггсу належить не тільки стати Великим і Могутнім Чарівником Країни Оз, а й трохи змінитися на краще.

Тривалість: 02:10:29
Якість:
Відео:
кодек: H.265 (HEVC)
розмір кадру: 1920 x 800
бітрейт: 5 644 кб/с
бітова глибина: 10 біт
Увага! Перед завантаженням переконайтесь, що ваш пристрій відтворення (та/або ПЗ) підтримує H.265 (HEVC)

Аудіо # 1:
мова: українська
переклад: професійний дубльований
кодек: AC-3 5.1
бітрейт: 640 кб/с

Аудіо # 2:
мова: англійська
переклад: оригінал
кодек: 5.1
бітрейт: 1510 кб/с

Субтитри # 1:
мова: українська (Forced),
тип: програмні (м'які)
формат: *.srt

Субтитри # 2:
мова: українська (Full),
тип: програмні (м'які)
формат: *.srt

Субтитри # 3:
мова: англійська (Full),
тип: програмні (м'які)
формат: *.srt

Субтитри # 4:
мова: англійська (SDH),
тип: програмні (м'які)
формат: *.srt

Субтитри # 5:
мова: англійська (SDH-Colored),
тип: програмні (м'які)
формат: *.srt


Info
Код:
General
Unique ID                                : 76600643747349736313110457347722716766 (0x39A0BF52AC39011112C12423481C265E)
Complete name                            : F:\Video\Oz the Great and Powerful (2013) 1080p H.265 [UKR_ENG] [Hurtom].
Format                                   :
Format version                           : Version 4 / Version 2
File size                                : 7.11 GiB
Duration                                 : 2 h 10 min
Overall bit rate                         : 7 797 kb/s
Movie name                               : Оз: Великий та Могутній / Oz the Great and Powerful (2013)
Encoded date                             : UTC 2019-06-14 19:42:42
Writing application                      : v20.0.0 ('I Am The Sun') 64-bit
Writing library                          : libebml v1.3.5 + v1.4.8
Cover                                    : Yes
Attachments                              : Cover.jpg

Video
ID                                       : 1
Format                                   : HEVC
Format/Info                              : High Efficiency Video Coding
Format profile                           : Main [email protected]@High
Codec ID                                 : V_MPEGH/ISO/HEVC
Duration                                 : 2 h 10 min
Bit rate                                 : 5 644 kb/s
Width                                    : 1 920 pixels
Height                                   : 800 pixels
Display aspect ratio                     : 2.40:1
Frame rate mode                          : Constant
Frame rate                               : 23.976 (24000/1001) FPS
Color space                              : YUV
Chroma subsampling                       : 4:2:0
Bit depth                                : 10 bits
Bits/(Pixel*Frame)                       : 0.153
Stream size                              : 5.15 GiB (72%)
Title                                    : Оз: Великий та Могутній / Oz the Great and Powerful (2013)
Writing library                          : x265 2.9+9-f74003e88622:[Mac OS X][clang 10.0.0][64 bit] 10bit
Encoding settings                        : cpuid=1111039 / frame-threads=14 / wpp / no-pmode / no-pme / no-psnr / no-ssim / log-level=3 / input-csp=1 / input-res=1920x800 / interlace=0 / total-frames=0 / level-idc=41 / high-tier=1 / uhd-bd=0 / ref=5 / allow-non-conformance / no-repeat-headers / annexb / no-aud / no-hrd / info / hash=0 / no-temporal-layers / open-gop / min-keyint=23 / keyint=240 / gop-lookahead=0 / bframes=11 / b-adapt=2 / b-pyramid / bframe-bias=0 / rc-lookahead=60 / lookahead-slices=5 / scenecut=40 / radl=0 / no-intra-refresh / ctu=64 / min-cu-size=8 / rect / amp / max-tu-size=32 / tu-inter-depth=4 / tu-intra-depth=4 / limit-tu=1 / rdoq-level=2 / dynamic-rd=0.00 / no-ssim-rd / signhide / no-tskip / nr-intra=0 / nr-inter=0 / no-constrained-intra / no-strong-intra-smoothing / max-merge=5 / limit-refs=2 / no-limit-modes / me=3 / subme=7 / merange=57 / temporal-mvp / weightp / weightb / no-analyze-src-pics / deblock=-3:-3 / no-sao / no-sao-non-deblock / rd=6 / no-early-skip / rskip / no-fast-intra / no-tskip-fast / no-cu-lossless / no-b-intra / no-splitrd-skip / rdpenalty=0 / psy-rd=2.00 / psy-rdoq=1.00 / no-rd-refine / no-lossless / cbqpoffs=0 / crqpoffs=0 / rc=crf / crf=19.0 / qcomp=0.60 / qpstep=4 / stats-write=0 / stats-read=0 / vbv-maxrate=50000 / vbv-bufsize=50000 / vbv-init=0.9 / crf-max=0.0 / crf-min=0.0 / ipratio=1.40 / pbratio=1.30 / aq-mode=3 / aq-strength=0.80 / no-cutree / zone-count=0 / no-strict-cbr / qg-size=32 / no-rc-grain / qpmax=69 / qpmin=0 / no-const-vbv / sar=1 / overscan=0 / videoformat=5 / range=0 / colorprim=2 / transfer=2 / colormatrix=2 / chromaloc=0 / display-window=0 / max-cll=0,0 / min-luma=0 / max-luma=1023 / log2-max-poc-lsb=8 / vui-timing-info / vui-hrd-info / slices=1 / no-opt-qp-pps / no-opt-ref-list-length-pps / no-multi-pass-opt-rps / scenecut-bias=0.00 / no-opt-cu-delta-qp / aq-motion / no-hdr / no-hdr-opt / no-dhdr10-opt / no-idr-recovery-sei / analysis-reuse-level=5 / scale-factor=0 / refine-intra=0 / refine-inter=0 / refine-mv=0 / no-limit-sao / ctu-info=0 / no-lowpass-dct / refine-mv-type=0 / copy-pic=1 / max-ausize-factor=1.0 / no-dynamic-refine / no-single-sei
Language                                 : English
Default                                  : Yes
Forced                                   : No
Color range                              : Limited

Audio #1
ID                                       : 2
Format                                   : AC-3
Format/Info                              : Audio Coding 3
Codec ID                                 : A_AC3
Duration                                 : 2 h 10 min
Bit rate mode                            : Constant
Bit rate                                 : 640 kb/s
Channel(s)                               : 6 channels
Channel positions                        : Front: L C R, Side: L R, LFE
Sampling rate                            : 48.0 kHz
Frame rate                               : 31.250 FPS (1536 SPF)
Bit depth                                : 16 bits
Compression mode                         : Lossy
Stream size                              : 597 MiB (8%)
Title                                    : ПД - 5.1 @ 640 kbps - Blu-Ray
Language                                 : Ukrainian
Service kind                             : Complete Main
Default                                  : Yes
Forced                                   : Yes

Audio #2
ID                                       : 3
Format                                   :
Format/Info                              : Digital Theater Systems
Codec ID                                 : A_DTS
Duration                                 : 2 h 10 min
Bit rate mode                            : Constant
Bit rate                                 : 1 509 kb/s
Channel(s)                               : 6 channels
Channel positions                        : Front: L C R, Side: L R, LFE
Sampling rate                            : 48.0 kHz
Frame rate                               : 93.750 FPS (512 SPF)
Bit depth                                : 24 bits
Compression mode                         : Lossy
Delay relative to video                  : 11 ms
Stream size                              : 1.38 GiB (19%)
Title                                    : 5.1 @ 1536 kbps - Original
Default                                  : No
Forced                                   : No

Text #1
ID                                       : 4
Format                                   : UTF-8
Codec ID                                 : S_TEXT/UTF8
Codec ID/Info                            : UTF-8 Plain Text
Duration                                 : 49 min 42 s
Bit rate                                 : 0 b/s
Count of elements                        : 3
Stream size                              : 73.0 Bytes (0%)
Title                                    : Forced
Language                                 : Ukrainian
Default                                  : Yes
Forced                                   : Yes

Text #2
ID                                       : 5
Format                                   : UTF-8
Codec ID                                 : S_TEXT/UTF8
Codec ID/Info                            : UTF-8 Plain Text
Duration                                 : 2 h 3 min
Bit rate                                 : 61 b/s
Count of elements                        : 1584
Stream size                              : 55.9 KiB (0%)
Title                                    : Full
Language                                 : Ukrainian
Default                                  : No
Forced                                   : No

Text #3
ID                                       : 6
Format                                   : UTF-8
Codec ID                                 : S_TEXT/UTF8
Codec ID/Info                            : UTF-8 Plain Text
Duration                                 : 2 h 7 min
Bit rate                                 : 49 b/s
Count of elements                        : 1708
Stream size                              : 46.1 KiB (0%)
Title                                    : Full
Language                                 : English
Default                                  : No
Forced                                   : No

Text #4
ID                                       : 7
Format                                   : UTF-8
Codec ID                                 : S_TEXT/UTF8
Codec ID/Info                            : UTF-8 Plain Text
Duration                                 : 2 h 9 min
Bit rate                                 : 55 b/s
Count of elements                        : 2011
Stream size                              : 52.3 KiB (0%)
Title                                    : SDH
Language                                 : English
Default                                  : No
Forced                                   : No

Text #5
ID                                       : 8
Format                                   : UTF-8
Codec ID                                 : S_TEXT/UTF8
Codec ID/Info                            : UTF-8 Plain Text
Duration                                 : 2 h 9 min
Bit rate                                 : 70 b/s
Count of elements                        : 2011
Stream size                              : 67.1 KiB (0%)
Title                                    : SDH-Colored
Language                                 : English
Default                                  : No
Forced                                   : No

Menu
00:00:00.000                             : en:1. Opening Titles
00:02:37.699                             : en:2. Kansas, 1905
00:06:16.960                             : en:3. The Show
00:09:57.555                             : en:4. Make Me Walk
00:11:32.692                             : en:5. A Great Man
00:15:20.753                             : en:6. The Escape
00:17:47.191                             : en:7. The Tornado
00:20:29.478                             : en:8. Where Am I?
00:24:01.982                             : en:9. Theodora the Good Witch
00:24:49.780                             : en:10. River Fairies
00:27:01.662                             : en:11. The Wicked Witches' Minions
00:29:37.359                             : en:12. May I Have this Dance?
00:32:43.420                             : en:13. The Lion
00:34:30.193                             : en:14. Finley, the Loyal Servant
00:37:22.657                             : en:15. Sourpuss
00:38:57.377                             : en:16. Evanora, The Royal Advisor
00:40:39.145                             : en:17. I'm Not Wicked!
00:42:09.944                             : en:18. Show Me Now
00:42:52.445                             : en:19. The Royal Treasure of Oz
00:45:33.481                             : en:20. No Turning Back
00:47:22.840                             : en:21. China Town
00:48:32.409                             : en:22. China Girl
00:53:29.832                             : en:23. Crossroads
00:55:22.653                             : en:24. The Dark Forest
00:57:15.932                             : en:25. The Plan
00:59:10.839                             : en:26. Glinda the Good
01:02:05.263                             : en:27. Broken Heart
01:05:33.221                             : en:28. The Prophecy
01:06:21.102                             : en:29. She Knows
01:09:55.775                             : en:30. Bubble Voyage
01:12:20.836                             : en:31. Wizard Enough
01:15:37.783                             : en:32. One Bite
01:18:20.321                             : en:33. The Good People of Oz
01:19:47.783                             : en:34. The Munchkin Song
01:21:27.883                             : en:35. Theodora the Wicked
01:26:16.171                             : en:36. Leaving
01:28:08.783                             : en:37. Tuck Me In
01:30:33.219                             : en:38. Battle Plan
01:34:24.117                             : en:39. Few But Mighty
01:36:57.437                             : en:40. The Guard Gate
01:37:35.975                             : en:41. The Battle Begins
01:41:30.876                             : en:42. Stick With the Plan
01:42:30.394                             : en:43. Glinda in Chains
01:45:51.762                             : en:44. Give Up, Glinda
01:48:33.424                             : en:45. No One Defies Oz!
01:51:23.802                             : en:46. Unleash the Stars
01:54:26.318                             : en:47. Witch Fight
01:55:54.072                             : en:48. What Have You Done?
01:57:58.405                             : en:49. Forever Free
01:59:34.417                             : en:50. Gifts
02:02:49.571                             : en:51. What Do You See?
02:04:32.757                             : en:52. Credits
Світлини





Джерело: &
Особиста оцінка: 9 - давно не бачив настільки якісне кіно


 Трекер:    Зареєстрований   

Завантажити / скачати фільм українською



відео для новачків



 Зареєстрований:   2019-06-14 22:59
 Розмір:   7.11 GB 
 Оцінка фільму:   9/10 (Голосів: 2)
   
Ваш часовий пояс: GMT + 2 Години

Нова тема   Відповісти