Ми / Us (2019) Remux 1080p Ukr/Eng | Sub Eng

Нові коментарі

Нова тема   Відповісти
Автор Повідомлення
antik_2008 
Релізер і модератор відео


З нами з: 20.10.08
Востаннє: 25.06.19
Повідомлень: 2064

2019-06-14 21:27  
Ми / Us (2019) Remux 1080p Ukr/Eng | Sub Eng

Ми / Us (2019) Remux 1080p Ukr/Eng | Sub Eng


Жанр: трилер, жахи
Країна: США





Кінокомпанія: Universal Pictures, Monkeypaw Productions, Dentsu, Fuji Television Network
Режисер: Джордан Піл
Актори: Лупіта Ніонґо, Вінстон Дьюк, Елізабет Мосс, Тім Гайдекер, Шагаді Райт Джозеф, Еван Алекс, Ях'я Абдул-Матін II, Анна Диоп, Калі Шелдон, Даррел Черні та інші

Сюжет:
Дружня родина та Аделеїди Вілсони разом з двома дітьми вирушила на відпочинок. Вони оселилися у своєму пляжному будиночку на узбережжі Каліфорнії, аби провести літо біля моря у компанії друзів. Після насиченого дня сім’я готується до сну. Та доброї ночі побажати один одному не вийде. Поблизу їх будинку з’являються незнайомці, що тримаються за руки. Познайомитися з ними не виходить – ці четверо поводяться доволі агресивно та не приховують бажання вбити Вілсонів. Скоро стає зрозуміло, що ці четверо – це вони самі. І відомий вислів про те, що ти сам є для себе головним ворогом, набуває для відпочивальників нового змісту. Від такого ворога не втекти, бо він знає де ти, що ти робиш та навіть що ти думаєш.


Тривалість: 01:56:27
Якість: Remux 1080p
Відео:
кодек:
розмір кадру: 1920x1080
бітрейт: 29.3 Mб/с

Аудіо #1:
мова: українська
переклад: професійний дубльований | студія LeDoyen
кодек: 2.0 [stereo]
бітрейт: 192 кб/с

Аудіо # 2:
мова: англійська
переклад: оригінал
кодек: 5.1
бітрейт: 640 кб/с

Аудіо # 3:
мова: англійська
переклад: оригінал
кодек: TrueHD 7.1
бітрейт: 3177 кб/с

Субтитри:
мова: англійська
тип: програмні (м'які)
формат: *.srt
Info
Код:

General
Complete name                            : Us (2019) Blu-Ray Remux [ukr,eng] [ViDeO_Hurtom].
Format                                   :
Format version                           : Version 4
File size                                : 27.1 GiB
Duration                                 : 1 h 56 min
Overall bit rate mode                    : Variable
Overall bit rate                         : 33.3 Mb/s
Movie name                               : Us (2019) Blu-Ray Remux [ukr,eng] [ViDeO_Hurtom]
Encoded date                             : UTC 2019-06-14 17:55:43
Writing application                      : v30.1.0 ('Forever And More') 64-bit
Writing library                          : libebml v1.3.6 + v1.4.9

Video
ID                                       : 1
Format                                   : AVC
Format/Info                              : Advanced Video Codec
Format profile                           : [email protected]
Format settings                          : CABAC / 4 Ref Frames
Format settings, CABAC                   : Yes
Format settings, RefFrames               : 4 frames
Codec ID                                 : V_MPEG4/ISO/AVC
Duration                                 : 1 h 56 min
Bit rate mode                            : Variable
Bit rate                                 : 29.3 Mb/s
Maximum bit rate                         : 32.7 Mb/s
Width                                    : 1 920 pixels
Height                                   : 1 080 pixels
Display aspect ratio                     : 16:9
Frame rate mode                          : Constant
Frame rate                               : 23.976 (24000/1001) FPS
Color space                              : YUV
Chroma subsampling                       : 4:2:0
Bit depth                                : 8 bits
Scan type                                : Progressive
Bits/(Pixel*Frame)                       : 0.589
Stream size                              : 23.8 GiB (88%)
Language                                 : English
Default                                  : Yes
Forced                                   : No

Audio #1
ID                                       : 2
Format                                   : AC-3
Format/Info                              : Audio Coding 3
Commercial name                          : Dolby Digital
Codec ID                                 : A_AC3
Duration                                 : 1 h 56 min
Bit rate mode                            : Constant
Bit rate                                 : 192 kb/s
Channel(s)                               : 2 channels
Channel layout                           : L R
Sampling rate                            : 48.0 kHz
Frame rate                               : 31.250 FPS (1536 SPF)
Bit depth                                : 16 bits
Compression mode                         : Lossy
Stream size                              : 160 MiB (1%)
Title                                    : , 2 ch, 192 Кбт/с
Language                                 : Ukrainian
Service kind                             : Complete Main
Default                                  : Yes
Forced                                   : No

Audio #2
ID                                       : 3
Format                                   : AC-3
Format/Info                              : Audio Coding 3
Commercial name                          : Dolby Digital
Codec ID                                 : A_AC3
Duration                                 : 1 h 56 min
Bit rate mode                            : Constant
Bit rate                                 : 640 kb/s
Channel(s)                               : 6 channels
Channel layout                           : L R C LFE Ls Rs
Sampling rate                            : 48.0 kHz
Frame rate                               : 31.250 FPS (1536 SPF)
Bit depth                                : 16 bits
Compression mode                         : Lossy
Stream size                              : 533 MiB (2%)
Title                                    : , 6 ch, 640 Кбт/с
Language                                 : English
Service kind                             : Complete Main
Default                                  : No
Forced                                   : No

Audio #3
ID                                       : 4
Format                                   : MLP FBA 16-ch
Format/Info                              : Meridian Lossless Packing FBA with 16-channel presentation
Commercial name                          : Dolby TrueHD with Dolby Atmos
Codec ID                                 : A_TRUEHD
Duration                                 : 1 h 56 min
Bit rate mode                            : Variable
Bit rate                                 : 3 177 kb/s
Maximum bit rate                         : 4 872 kb/s
Channel(s)                               : 8 channels
Channel layout                           : L R C LFE Ls Rs Lb Rb
Sampling rate                            : 48.0 kHz
Frame rate                               : 1 200.000 FPS (40 SPF)
Compression mode                         : Lossless
Stream size                              : 2.58 GiB (10%)
Title                                    : TrueHD, 8 ch, 3177 Кбт/с
Language                                 : English
Default                                  : No
Forced                                   : No
Number of dynamic objects                : 11
Bed channel count                        : 1 channel
Bed channel configuration                : LFE

Text
ID                                       : 5
Format                                   : UTF-8
Codec ID                                 : S_TEXT/UTF8
Codec ID/Info                            : UTF-8 Plain Text
Duration                                 : 1 h 49 min
Bit rate                                 : 35 b/s
Count of elements                        : 1038
Stream size                              : 28.6 KiB (0%)
Title                                    : Full
Language                                 : English
Default                                  : No
Forced                                   : No

Menu
00:00:00.000                             : en:Глава 01
00:06:05.156                             : en:Глава 02
00:11:25.351                             : en:Глава 03
00:17:12.114                             : en:Глава 04
00:23:24.653                             : en:Глава 05
00:29:31.520                             : en:Глава 06
00:36:07.791                             : en:Глава 07
00:41:07.757                             : en:Глава 08
00:48:08.302                             : en:Глава 09
00:55:43.257                             : en:Глава 10
01:03:00.318                             : en:Глава 11
01:07:49.357                             : en:Глава 12
01:14:25.294                             : en:Глава 13
01:20:12.016                             : en:Глава 14
01:25:25.954                             : en:Глава 15
01:29:44.045                             : en:Глава 16
01:35:21.674                             : en:Глава 17
01:40:54.548                             : en:Глава 18
01:47:36.909                             : en:Глава 19
01:52:14.394                             : en:Глава 20






Подяка пану kryk-v.ya. за доріжку.

Джерело: &


Золотий реліз (завантажене не впливає на рейтинг)
 Трекер:    Зареєстрований   

Завантажити / скачати фільм українською



відео для новачків



 Зареєстрований:   2019-06-14 21:27
 Розмір:   27.13 GB 
 Оцінка фільму:   8/10 (Голосів: 10)
   
Інші релізи
   Ми / Us (2019) 1080p H.265 Ukr/Eng | Sub Eng -Star-Lord-  2 / 0   7.02 GB   2019-06-21 22:06 
   Ми / Us (2019) Ukr/Eng Electroz  8 / 1   1.41 GB   2019-06-17 12:09 
   Ми / Us (2019) AVC Ukr/Eng | Sub Eng 11FrYkT  9 / 0   1.98 GB   2019-06-15 22:26 
   Ми / Us (2019) 1080p Ukr/Eng | Sub Eng staf777  7 / 0   10.47 GB   2019-06-12 21:25 
   Ми / Us (2019) 720p Ukr/Eng | Sub Eng 11FrYkT  13 / 0   3.68 GB   2019-06-12 18:17 
Ваш часовий пояс: GMT + 2 Години

Нова тема   Відповісти