Після / After (2019) 1080p Ukr/Eng | Sub Eng

Нові коментарі

Нова тема   Відповісти
Автор Повідомлення
Anonymous 







2019-06-14 17:48  
Після / After (2019) 1080p Ukr/Eng | Sub Eng

Після / After (2019) 1080p Ukr/Eng | Sub Eng


Жанр: драма, романтичний
Країна: США



Кінокомпанія: Offspring Entertainment, Voltage Pictures
Режисер: Дженні Ґейдж
Актори: Хіро Файнс-Тіффін, Селма Блер, Джозефін Ленгфорд, Дженніфер Білз, Пітер Галлахер, Медоу Вільямс, Семюел Ларсен, Інанна Саркіс, Піа Міа, Ділан Арнольд

Сюжет:
Тесса Янг – молода дівчина, старанна студентка з хорошої сім'ї, нічого поганого про неї сказати не можна. Хардін Скотт – красивий бунтар, від якого всі представниці протилежної статі просто втрачають розум. Ці двоє абсолютно різні, але як раз протилежності й люблять притягуватися. Вони познайомилися в коледжі – саме в ці роки потрібно насолоджуватися молодістю, свободою та можливістю відриватися з іншими студентами. Спочатку Тесса не хотіла і близько підпускати Хардіна, але час брав своє. Тепер вона не уявляє свого життя без хлопця. Але чи Тесса так добре знає свого обранця? Чи так усе буде просто у їх стосунках?


Тривалість: 01:46:04
Якість: 1080p
Відео:
кодек:
розмір кадру: 1920x804
бітрейт: 11300 кб/с

Аудіо # 1:
мова: українська
переклад: професійний дубльований
кодек: 5.1
бітрейт: 384 кб/с

Аудіо # 2:
мова: англійська
переклад: оригінал
кодек: 5.1
бітрейт: 1509 кб/с

Джерело озвучення:


Субтитри:
мова: англійська
тип: програмні (м'які)
формат: *.srt
Info
General
Complete name : After (2019) 1080p [ukr_eng] [ViDeO_Hurtom].
Format :
Format version : Version 4
File size : 9.75 GiB
Duration : 1 h 46 min
Overall bit rate : 13.2 Mb/s
Movie name : After (2019) 1080p [ukr_eng] [ViDeO_Hurtom]
Encoded date : UTC 2019-07-05 15:37:21
Writing application : v30.1.0 ('Forever And More') 64-bit
Writing library : libebml v1.3.6 + v1.4.9

Video
ID : 1
Format : AVC
Format/Info : Advanced Video Codec
Format profile : [email protected]
Format settings : CABAC / 5 Ref Frames
Format settings, CABAC : Yes
Format settings, RefFrames : 5 frames
Codec ID : V_MPEG4/ISO/AVC
Duration : 1 h 46 min
Bit rate : 11.3 Mb/s
Width : 1 920 pixels
Height : 804 pixels
Display aspect ratio : 2.40:1
Frame rate mode : Constant
Frame rate : 23.976 (24000/1001) FPS
Color space : YUV
Chroma subsampling : 4:2:0
Bit depth : 8 bits
Scan type : Progressive
Bits/(Pixel*Frame) : 0.305
Stream size : 8.35 GiB (86%)
Title : seleZen
Writing library : core 148 r2705kMod 3f5ed56
Encoding settings : cabac=1 / ref=5 / deblock=1:-2:-2 / analyse=0x3:0x133 / me=umh / subme=10 / psy=1 / fade_compensate=0.00 / psy_rd=1.20:0.05 / mixed_ref=1 / me_range=32 / chroma_me=1 / trellis=2 / 8x8dct=1 / cqm=0 / deadzone=21,11 / fast_pskip=0 / chroma_qp_offset=-3 / threads=12 / lookahead_threads=2 / sliced_threads=0 / nr=0 / decimate=0 / interlaced=0 / bluray_compat=0 / constrained_intra=0 / fgo=0 / bframes=8 / b_pyramid=2 / b_adapt=2 / b_bias=0 / direct=3 / weightb=1 / open_gop=0 / weightp=2 / keyint=240 / keyint_min=23 / scenecut=40 / intra_refresh=0 / rc_lookahead=50 / rc=2pass / mbtree=0 / bitrate=11276 / ratetol=1.0 / qcomp=0.60 / qpmin=0 / qpmax=51 / qpstep=4 / cplxblur=20.0 / qblur=0.5 / vbv_maxrate=50000 / vbv_bufsize=62500 / nal_hrd=none / filler=0 / ip_ratio=1.40 / pb_ratio=1.30 / aq=3:0.80
Language : English
Default : Yes
Forced : No

Audio #1
ID : 2
Format : AC-3
Format/Info : Audio Coding 3
Commercial name : Dolby Digital
Codec ID : A_AC3
Duration : 1 h 46 min
Bit rate mode : Constant
Bit rate : 384 kb/s
Channel(s) : 6 channels
Channel layout : L R C LFE Ls Rs
Sampling rate : 48.0 kHz
Frame rate : 31.250 FPS (1536 SPF)
Bit depth : 16 bits
Compression mode : Lossy
Stream size : 291 MiB (3%)
Title : , 6 ch, 384 Кбт/с
Language : Ukrainian
Service kind : Complete Main
Default : Yes
Forced : No

Audio #2
ID : 3
Format :
Format/Info : Digital Theater Systems
Codec ID : A_DTS
Duration : 1 h 46 min
Bit rate mode : Constant
Bit rate : 1 509 kb/s
Channel(s) : 6 channels
Channel layout : C L R Ls Rs LFE
Sampling rate : 48.0 kHz
Frame rate : 93.750 FPS (512 SPF)
Bit depth : 24 bits
Compression mode : Lossy
Stream size : 1.12 GiB (11%)
Title : , 6 ch, 1509 Кбт/с
Language : English
Default : No
Forced : No

Text
ID : 4
Format : UTF-8
Codec ID : S_TEXT/UTF8
Codec ID/Info : UTF-8 Plain Text
Duration : 1 h 41 min
Bit rate : 51 b/s
Count of elements : 1353
Stream size : 38.0 KiB (0%)
Language : English
Default : No
Forced : No

Menu
00:00:00.000 : en:00:00:00.000
00:05:59.067 : en:00:05:59.067
00:10:00.350 : en:00:10:00.350
00:14:28.534 : en:00:14:28.534
00:23:08.178 : en:00:23:08.178
00:28:13.150 : en:00:28:13.150
00:33:22.083 : en:00:33:22.083
00:38:41.277 : en:00:38:41.277
00:44:33.629 : en:00:44:33.629
00:48:21.982 : en:00:48:21.982
00:53:24.368 : en:00:53:24.368
00:58:40.267 : en:00:58:40.267
01:05:25.755 : en:01:05:25.755
01:10:28.891 : en:01:10:28.891
01:15:44.081 : en:01:15:44.081
01:20:31.785 : en:01:20:31.785
01:24:44.705 : en:01:24:44.705
01:31:11.549 : en:01:31:11.549
01:36:13.935 : en:01:36:13.935
01:39:33.217 : en:01:39:33.217
Скріншоти





Подяка пану Hanway за синхронізацію звуку.

Джерело:
Особиста оцінка: 0 - не дивився


 Трекер:    Зареєстрований   

Завантажити / скачати фільм українською



відео для новачків



 Зареєстрований:   2019-07-05 19:04
 Розмір:   9.75 GB 
 Оцінка фільму:   10/10 (Голосів: 6)
   
Інші релізи
   Після / After (2019) antik_2008  8 / 0   1.44 GB   2019-07-05 20:14 
   Після / After (2019) 1080p H.265 Ukr/Eng | Sub Eng -Star-Lord-  2 / 0   6.43 GB   2019-07-05 20:04 
   Після / After (2019) Remux 1080p Ukr/Eng | Sub Eng antik_2008  3 / 0   27.36 GB   2019-07-05 18:50 
   Після / After (2019) BDRp 720p Ukr/Eng | Sub Eng 11FrYkT  1 / 0   4.83 GB   2019-07-05 16:32 
   Після / After (2019) AVC Ukr/Eng | Sub Eng 11FrYkT  14 / 0   1.94 GB   2019-07-05 14:56 
bot 
робот


З нами з: 30.09.07
Востаннє: 26.05.05
Повідомлень: 23371

2019-07-04 15:23  
Тему перенесено з Анонси релізів до форуму Фільми в HD


antik_2008

Anonymous 







2019-07-05 19:05  
Оновив торент файл. Замінив аудіо і відео на більш якісне.
Ваш часовий пояс: GMT + 2 Години

Нова тема   Відповісти