Кастлванія (Сезон 2, Епізод 01-02) / Castlevania (Season 2, Episode 01-02) (2018) 1080p Ukr/Eng | Sub Ukr

Нові коментарі

Нова тема   Відповісти
Останній раз роздавалося ctacua (2019-06-25)
Автор Повідомлення
dragheart 
Свій


З нами з: 27.01.16
Востаннє: 25.06.19
Повідомлень: 57

2019-06-14 16:44  
Кастлванія (Сезон 2, Епізод 01-02) / Castlevania (Season 2, Episode 01-02) (2018) 1080p Ukr/Eng | Sub Ukr

Кастлванія (Сезон 2, Епізод 01-02) / Castlevania (Season 2, Episode 01-02) (2018) 1080p Ukr/Eng | Sub Ukr


Жанр: анімація, жахи
Країна: США, Канада



Кінокомпанія: Netflix, Frederator Studios, Powerhouse Animation Studios
Режисер: Сем Дітс
Актори: Річард Армітедж, Джеймс Келліс, Грем Мактавіш, Метт Фрюер та ін.

Сюжет:
Після того, як його дружину спалюють на вогнищі через помилкове звинувачення у чаклунстві, граф Влад Дракула Цепеш обіцяє, що весь народ Волощини розплатиться за це своїми життями. Його орди чудовиськ і демонів наповнюють країну, змушуючи людей жити страхом і недовірою. Щоб покласти цьому край, знеславлений мисливець на вампірів Тревор Бельмонт, син Дракули Алукард та магічка Сіфа Бельнадес підіймають зброю проти сил Дракули. І це другий сезон.


ПРИСУТНЯ НЕЦЕНЗУРНА ЛАЙКА!

Тривалість: 1 серія: ~25 хвилин (цілком серій: 8)
Перелік серій
01. Військова нарада/War Council
02. Старий дім/Old Homes
03. Битви в тінях/Shadow Battles
04. Зламана щогла/Broken Mast
05. Останнє заклинання/Last Spell
06. Ріка/The River
07. В ім'я любові/For Love
08. Кінець часів/End Times
Якість:
Відео:
кодек:
розмір кадру: 1920 х 1080
бітрейт: 7500 кб/с

Аудіо # 1:
мова: українська
переклад: двоголосий закадровий | DubLiCat (Olegolas, Олександра Ісаєнко)
кодек: 5.1
бітрейт: 384 кб/с

Аудіо # 2:
мова: англійська
переклад: оригінал
кодек: 5.1
бітрейт: 384 кб/с

Субтитри:
мова: українська
тип: програмні (м'які)
формат: *.srt
переклад:Повітряний Змій



Шукайте нашу сторінку на FaceBook: DubLcat


Посилання на ТРЕЙЛЕР
Info
General
Unique ID : 109395193357671924730373181995458160263 (0x524CBF7424B3F78E84658927D782E687)
Complete name : F:\Castlevania S02.1080p.Ukr.Eng\Castlevania.s02e01.1080p.Ukr.Eng.
Format :
Format version : Version 4 / Version 2
File size : 1.42 GiB
Duration : 25mn 12s
Overall bit rate mode : Variable
Overall bit rate : 8 064 Kbps
Movie name : Кастлванія.С2Е1.
Encoded date : UTC 2019-06-07 17:56:22
Writing application : v23.0.0 ('The Bride Said No') 64-bit
Writing library : libebml v1.3.6 + v1.4.9
DURATION : 00:25:12.192000000
NUMBER_OF_FRAMES : 47256
NUMBER_OF_BYTES : 72585216
_STATISTICS_WRITING_APP : v23.0.0 ('The Bride Said No') 64-bit
_STATISTICS_WRITING_DATE_UTC : 2019-06-07 17:56:22
_STATISTICS_TAGS : BPS DURATION NUMBER_OF_FRAMES NUMBER_OF_BYTES

Video
ID : 1
Format : AVC
Format/Info : Advanced Video Codec
Format profile : [email protected]
Format settings, CABAC : Yes
Format settings, ReFrames : 3 frames
Codec ID : V_MPEG4/ISO/AVC
Duration : 25mn 12s
Bit rate mode : Variable
Bit rate : 7 135 Kbps
Nominal bit rate : 7 500 Kbps
Maximum bit rate : 11.2 Mbps
Width : 1 920 pixels
Height : 1 080 pixels
Display aspect ratio : 16:9
Frame rate : 23.976 fps
Color space : YUV
Chroma subsampling : 4:2:0
Bit depth : 8 bits
Scan type : Progressive
Bits/(Pixel*Frame) : 0.144
Stream size : 1.26 GiB (88%)
Writing library : core 148 r2715 7e75228
Encoding settings : cabac=1 / ref=3 / deblock=1:0:0 / analyse=0x1:0x111 / me=umh / subme=10 / psy=1 / psy_rd=1.00:0.00 / mixed_ref=1 / me_range=24 / chroma_me=1 / trellis=2 / 8x8dct=0 / cqm=0 / deadzone=21,11 / fast_pskip=1 / chroma_qp_offset=-2 / threads=8 / lookahead_threads=1 / sliced_threads=0 / nr=0 / decimate=1 / interlaced=0 / bluray_compat=0 / stitchable=1 / constrained_intra=0 / bframes=2 / b_pyramid=0 / b_adapt=2 / b_bias=0 / direct=3 / weightb=1 / open_gop=0 / weightp=2 / keyint=48 / keyint_min=25 / scenecut=0 / intra_refresh=0 / rc_lookahead=48 / rc=2pass / mbtree=1 / bitrate=7500 / ratetol=1.0 / qcomp=0.50 / qpmin=6 / qpmax=51 / qpstep=4 / cplxblur=20.0 / qblur=0.5 / vbv_maxrate=11250 / vbv_bufsize=15000 / nal_hrd=vbr / filler=0 / ip_ratio=1.40 / aq=1:1.00
Default : Yes
Forced : No

Audio #1
ID : 2
Format : AC-3
Format/Info : Audio Coding 3
Mode extension : CM (complete main)
Codec ID : A_AC3
Duration : 25mn 12s
Bit rate mode : Constant
Bit rate : 384 Kbps
Channel(s) : 6 channels
Channel positions : Front: L C R, Side: L R, LFE
Sampling rate : 48.0 KHz
Bit depth : 16 bits
Compression mode : Lossy
Stream size : 69.2 MiB (5%)
Language : Ukrainian
Default : Yes
Forced : No

Audio #2
ID : 3
Format : AC-3
Format/Info : Audio Coding 3
Mode extension : CM (complete main)
Codec ID : A_AC3
Duration : 25mn 12s
Bit rate mode : Constant
Bit rate : 384 Kbps
Channel(s) : 6 channels
Channel positions : Front: L C R, Side: L R, LFE
Sampling rate : 48.0 KHz
Bit depth : 16 bits
Compression mode : Lossy
Stream size : 69.2 MiB (5%)
Language : English
Default : No
Forced : No

Text
ID : 4
Format : UTF-8
Codec ID : S_TEXT/UTF8
Codec ID/Info : UTF-8 Plain Text
Language : Ukrainian
Default : Yes
Forced : No
Скріншоти




Джерело:
Особиста оцінка: 10 - без зайвих вагань рекомендую всім!


Авторський реліз (завантажувати можна без реєстрації)
 Трекер:    Зареєстрований   

Завантажити / скачати мультфільм українською



відео для новачків



 Зареєстрований:   2019-06-18 15:05
 Розмір:   2.82 GB 
 Оцінка мультсеріалу:   10/10 (Голосів: 5)
   
dragheart 
Свій


З нами з: 27.01.16
Востаннє: 25.06.19
Повідомлень: 57

2019-06-18 15:07  
Додано 2-й епізод
Ваш часовий пояс: GMT + 2 Години

Нова тема   Відповісти