Піраньї Неаполя / La paranza dei bambini (2019) Remux Ukr/Ita

Нові коментарі

Нова тема   Відповісти
Автор Повідомлення
antik_2008 
Релізер і модератор відео


З нами з: 20.10.08
Востаннє: 18.06.19
Повідомлень: 2054

2019-06-14 13:18  
Піраньї Неаполя / La paranza dei bambini (2019) Remux Ukr/Ita

Піраньї Неаполя / La paranza dei bambini (2019) Remux Ukr/Ita


Жанр: драма, кримінал
Країна: Італія





Кінокомпанія: Palomar Films
Режисер: Клаудіо Джованнезі
Актори: Франческо Ді Наполі, Вівіана Апреа, Ар Тем, Паскуале Маротта, Аньєлло Арена, Маттіа Піано Дель Бальцо, Чіро Веккьоне, Чіро Пеллекіа, Альфредо Турітто, Лука Накарло

Сюжет:
Ці п'ятнадцятирічні хлопці представляють неймовірну небезпеку для свого рідного Неаполя. Вони вважають, що вже зовсім скоро стануть королями злочинного світу міста на півдні Італії. Хлопці з юних років звикли тримати в руках зброю та їздити на своїх скутерах нічним Неаполем. У них крутий одяг, татуювання та свавільний характер. Кожен із них вважає людину поруч своїм братом і готовий життя за нього віддати. Вони не бояться в'язниці, смерті та ризику. Хлопці думають, що нічого не мають – але у них є дружба, любов. І все це вони готові віддати, щоб домогтися своїх цілей. Яких би цілей ця італійська молодь не добивалася, їх методи жорстокі. Це може зайти дуже далеко, і краще би цього не допустити.


Тривалість: 01:51:32
Якість: Remux
Відео:
кодек:
розмір кадру: 1920x1080
бітрейт: ~19997 кб/с

Аудіо # 1:
мова: українська
переклад: багатоголосий закадровий
кодек: 5.1
бітрейт: 384 кб/с

Аудіо # 2:
мова: італійська
переклад: оригінал
кодек: -HD Master 5.1
бітрейт: 4253 кб/с

Джерело озвучення:
Info
General
Complete name : La paranza dei bambini (2019) Remux [UKR_ITA].
Format :
Format version : Version 4
File size : 19.2 GiB
Duration : 1 h 51 min
Overall bit rate mode : Variable
Overall bit rate : 24.6 Mb/s
Movie name : La paranza dei bambini (2019) Remux [UKR_ITA]
Encoded date : UTC 2019-06-14 11:00:04
Writing application : v30.1.0 ('Forever And More') 64-bit
Writing library : libebml v1.3.6 + v1.4.9

Video
ID : 1
Format : AVC
Format/Info : Advanced Video Codec
Format profile : [email protected]
Format settings : CABAC / 4 Ref Frames
Format settings, CABAC : Yes
Format settings, RefFrames : 4 frames
Format settings, GOP : M=3, N=24
Codec ID : V_MPEG4/ISO/AVC
Duration : 1 h 51 min
Bit rate mode : Variable
Bit rate : 20.0 Mb/s
Maximum bit rate : 35.0 Mb/s
Width : 1 920 pixels
Height : 1 080 pixels
Display aspect ratio : 16:9
Frame rate mode : Constant
Frame rate : 23.976 (24000/1001) FPS
Standard : NTSC
Color space : YUV
Chroma subsampling : 4:2:0
Bit depth : 8 bits
Scan type : Progressive
Bits/(Pixel*Frame) : 0.402
Stream size : 15.6 GiB (81%)
Title : La paranza dei bambini (2019) - TeamHD Release
Language : Italian
Default : Yes
Forced : No
Color range : Limited
Color primaries : BT.709
Transfer characteristics : BT.709
Matrix coefficients : BT.709

Audio #1
ID : 2
Format : AC-3
Format/Info : Audio Coding 3
Commercial name : Dolby Digital
Codec ID : A_AC3
Duration : 1 h 51 min
Bit rate mode : Constant
Bit rate : 384 kb/s
Channel(s) : 6 channels
Channel layout : L R C LFE Ls Rs
Sampling rate : 48.0 kHz
Frame rate : 31.250 FPS (1536 SPF)
Bit depth : 16 bits
Compression mode : Lossy
Stream size : 306 MiB (2%)
Title : , 5.1,, ~384 kbps
Language : Ukrainian
Service kind : Complete Main
Default : Yes
Forced : No

Audio #2
ID : 3
Format : XLL
Format/Info : Digital Theater Systems
Commercial name : -HD Master Audio
Codec ID : A_DTS
Duration : 1 h 51 min
Bit rate mode : Variable
Bit rate : 4 256 kb/s
Channel(s) : 6 channels
Channel layout : C L R Ls Rs LFE
Sampling rate : 48.0 kHz
Frame rate : 93.750 FPS (512 SPF)
Bit depth : 24 bits
Compression mode : Lossless
Stream size : 3.31 GiB (17%)
Title : -HD MA 5.1, ~4253 kbps
Language : Italian
Default : No
Forced : No

Menu
00:00:00.000 : en:Chapter 01
00:12:38.758 : en:Chapter 02
00:24:49.488 : en:Chapter 03
00:39:59.397 : en:Chapter 04
00:55:47.344 : en:Chapter 05
01:12:57.373 : en:Chapter 06
01:28:54.329 : en:Chapter 07
01:41:40.094 : en:Chapter 08
Скріншоти






Джерело:
Особиста оцінка: 0 - не дивився


Золотий реліз (завантажене не впливає на рейтинг)
 Трекер:    Зареєстрований   

Завантажити / скачати фільм українською



відео для новачків



 Зареєстрований:   2019-06-14 14:40
 Розмір:   19.18 GB 
 Оцінка фільму:   8/10 (Голосів: 5)
   
Інші релізи
bot 
робот


З нами з: 30.09.07
Востаннє: 26.05.05
Повідомлень: 21521

2019-06-14 14:40  
Тему перенесено з Анонси релізів до форуму Фільми в HD


antik_2008

Ваш часовий пояс: GMT + 2 Години

Нова тема   Відповісти