Кімната 104 (Сезон 2) / Room 104 (Season 2) (2018) 720p Eng | sub Ukr

Нові коментарі

Нова тема   Відповісти
Автор Повідомлення
Chupacabr007 
Свій


З нами з: 07.07.15
Востаннє: 26.11.20
Повідомлень: 94

2019-06-14 10:48  
Кімната 104 (Сезон 2) / Room 104 (Season 2) (2018) 720p Eng | sub Ukr

Кімната 104 (Сезон 2) / Room 104 (Season 2) (2018) 720p Eng | sub Ukr


Жанр: драма, трилер, комедія
Країна: США



Кінокомпанія: Duplass Brothers Productions, HBO
Режисер: Ліза Джонсон, Патрік Брайс, Росс Патрідж
Актори: Рей Вілсон, Майкл Шенон, Джуді Грір, Том Кларк, Кирило Куліш, Том Ленк

Сюжет:
Дія відбувається в номері звичайного американського готелю неподалік від аеропорту. Це дуже нудне і сумне місце, яке тільки можна уявити. Але саме серед сірої буденності часто трапляються незвичайні речі - смішні, дивні, сумні, абсурдні і навіть страшні. Кожен епізод, як міні-фільм, зі своїми героями-постояльцями і їх історіями з різних жанрів - від комедії до жахів.


Тривалість: ~ 00:25:00
Перелік серій
01.FOMO
02.Mr. Mulvahill
03.Swipe Right
04.Hungry
05.Woman in the Wall
06.Arnold
07.The Man and the Baby and the Man
08.A Nightmare
09.The Return
10.Artificial
11.Shark
12.Josie & Me
Якість: 720p
Відео:
кодек:
розмір кадру: 1280 х 720
бітрейт: ~ 1 248 кб/с

Аудіо:
мова: англійська
переклад: оригінал
кодек: E- 5.1
бітрейт: 640 кб/с

Субтитри:
мова: українська
тип: програмні (м'які)
формат: *.srt
переклад: [SubAutumn]
Скріншоти




Info
General
Complete name : D:\SubAutumn\Room 104 (Season 2)\Room.104.S02E01.FOMO.
Format :
Format version : Version 4 / Version 2
File size : 355 MiB
Duration : 26mn 15s
Overall bit rate : 1 890 Kbps
Movie name : Room.104.S02E01.FOMO
Encoded date : UTC 2019-06-14 08:26:14
Writing application : v6.5.0 ('Isn't she lovely') built on Oct 20 2013 12:50:05
Writing library : libebml v1.3.0 + v1.4.1

Video
ID : 1
Format : AVC
Format/Info : Advanced Video Codec
Format profile : [email protected]
Format settings, CABAC : Yes
Format settings, ReFrames : 5 frames
Codec ID : V_MPEG4/ISO/AVC
Duration : 26mn 15s
Bit rate : 1 212 Kbps
Width : 1 280 pixels
Height : 720 pixels
Display aspect ratio : 16:9
Frame rate mode : Constant
Frame rate : 23.976 fps
Color space : YUV
Chroma subsampling : 4:2:0
Bit depth : 8 bits
Scan type : Progressive
Bits/(Pixel*Frame) : 0.055
Stream size : 228 MiB (64%)
Default : Yes
Forced : No
Color range : Limited
Color primaries : BT.709
Transfer characteristics : BT.709
Matrix coefficients : BT.709

Audio
ID : 2
Format : E-AC-3
Format/Info : Audio Coding 3
Format settings, Endianness : Big
Codec ID : A_EAC3
Duration : 26mn 15s
Bit rate mode : Constant
Bit rate : 640 Kbps
Channel(s) : 6 channels
Channel positions : Front: L C R, Side: L R, LFE
Sampling rate : 48.0 KHz
Compression mode : Lossy
Delay relative to video : 21ms
Stream size : 120 MiB (34%)
Title : Original
Language : English
Default : No
Forced : No

Text
ID : 3
Format : UTF-8
Codec ID : S_TEXT/UTF8
Codec ID/Info : UTF-8 Plain Text
Title : Room.104.S02E01.FOMO
Language : Ukrainian
Default : Yes
Forced : No
Джерело:


Золотий реліз (завантажене не впливає на рейтинг)
 Трекер:    Зареєстрований   

Завантажити / скачати серіал українською



відео для новачків



 Зареєстрований:   2019-08-07 10:02
 Розмір:   4.43 GB 
 Оцінка серіалу:   8.4/10 (Голосів: 12)
   
Chupacabr007 
Свій


З нами з: 07.07.15
Востаннє: 26.11.20
Повідомлень: 94

2019-06-21 10:30  
Додано 2-3 серії
Chupacabr007 
Свій


З нами з: 07.07.15
Востаннє: 26.11.20
Повідомлень: 94

2019-06-25 14:10  
Додано 4-5 серії
Chupacabr007 
Свій


З нами з: 07.07.15
Востаннє: 26.11.20
Повідомлень: 94

2019-07-08 14:37  
Додано 6-7 серії
leicheman 
Відео Гуртом - фільмокрай
Відео Гуртом - фільмокрай


З нами з: 03.07.14
Востаннє: 27.11.20
Повідомлень: 5688

2019-07-12 22:18  
урк.постер
постер

don pedro 
Попереджень: 1
Попереджень: 1 


З нами з: 29.06.11
Востаннє: 27.11.20
Повідомлень: 18185

2019-07-12 22:21  
leicheman
Там ще й російські військові музиканти є?! Мабуть, ті, що у Сирію разом з "доктарам лізай" летіли.

Chupacabr007 
Свій


З нами з: 07.07.15
Востаннє: 26.11.20
Повідомлень: 94

2019-07-14 11:20  
leicheman
Дякую за постер. Але як його замінити?

Dark Invader 
Модератор відео


З нами з: 06.01.11
Востаннє: 26.11.20
Повідомлень: 3007

2019-07-14 18:11  
Chupacabr007
Замінив постер.

Chupacabr007 
Свій


З нами з: 07.07.15
Востаннє: 26.11.20
Повідомлень: 94

2019-07-14 18:55  
Dark Invader
Дуже вам дякую!

Chupacabr007 
Свій


З нами з: 07.07.15
Востаннє: 26.11.20
Повідомлень: 94

2019-07-17 13:51  
Додано 8 серію
Chupacabr007 
Свій


З нами з: 07.07.15
Востаннє: 26.11.20
Повідомлень: 94

2019-07-25 10:52  
Додано 9 серію
Chupacabr007 
Свій


З нами з: 07.07.15
Востаннє: 26.11.20
Повідомлень: 94

2019-08-02 11:29  
Додано 10 серію
Chupacabr007 
Свій


З нами з: 07.07.15
Востаннє: 26.11.20
Повідомлень: 94

2019-08-07 10:07  
Додано 11-12 серії
Повний сезон!

laszlozp 
Забанено
Забанено


З нами з: 28.07.19
Востаннє: 13.11.19
Повідомлень: 492

2019-08-07 13:08  
Гидотний серіал, покинув перегляд на середині 1 сезону
Ваш часовий пояс: GMT + 2 Години

Нова тема   Відповісти