Пограбування / Heist (2001) 720p 3xUkr/Eng | Sub Eng

Нові коментарі

Нова тема   Відповісти
Автор Повідомлення
Anonymous 







2019-06-14 08:34  
Пограбування / Heist (2001) 720p 3xUkr/Eng | Sub Eng

Пограбування / Heist (2001) 720p 3xUkr/Eng | Sub Eng


Жанр: бойовик, кримінальний, драма, трилер
Країна: США, Канада



Кінокомпанія: Morgan Creek Productions, Franchise Pictures, Indelible Pictures, Art Linson Productions, Epsilon Motion Pictures, Heightened Productions Inc., Linson Entertainment, Mel's Cite du Cinema, Stolen Film Productions
Режисер: Девід Мамет / David Mamet
Актори: Джин Гекмен / Gene Hackman, Денні ДеВіто / Danny DeVito, Делрой Ліндо / Delroy Lindo, Сем Роквел / Sam Rockwell, Ребека Піджен / Rebecca Pidgeon, Рікі Джей / Ricky Jay, Патті ЛюПон / Patti LuPone та інші

Сюжет:
У Джо Мура є все — красива молода дружина, гроші, що йому винен суперник і робота, яку він любить. Він — злодій. Його робота накривається мідним тазом тоді, коли його захоплюють зненацька за допомогою охоронної камери. Суперник Мура, Бергман шантажує його, вимагаючи пробачити борг, а його дружина вирушає до новачка — друга Бергмана.

Мур, його партнер, Бобі Блан і їх зв'язковий Пінкі Пінкус вимушені зібрати команду, яка зробить пограбування за замовленням Бергмана, і яке стане останнім в кар'єрі Мура.

Чи здасть Бергман Мура поліції? Чи повернеться до Мура дружина? Чи вийдуть сухими з води Блан і Пінкус? Кому можна вірити, а хто зрадить? Чи не буде хто-небудь збрехавши одного дня, брехати в черговий раз? І нарешті, хто сміятиметься останнім?


Тривалість: 01:49:02
Якість: 720p
Відео:
кодек:
розмір кадру: 1276x720
бітрейт: 3935 кб/с

Аудіо # 1:
мова: українська
переклад: багатоголосий закадровий
кодек: 2.0
бітрейт: 192 кб/с

Аудіо # 2:
мова: українська
переклад: двоголосий закадровий
кодек: 5.1
бітрейт: 384 кб/с

Аудіо # 3:
мова: українська
переклад: двоголосий закадровий
кодек: 5.1
бітрейт: 384 кб/с

Аудіо # 4:
мова: англійська
переклад: оригінал
кодек: 5.1
бітрейт: 384 кб/с

Субтитри:
мова: англійська
тип: програмні (м'які)
формат: *.srt

Додано синхронізовані поіменовані розділи з оригінального DVD*
*розділи взято з chapterdb.plex.tv та синхронізовано під програмою ChapterGen
Info
Код:

Complete name               : Heist (2001) [3xUkr,Eng sub.Eng] 720p [Hurtom].
Format                      :
Format version              : Version 4
File size                   : 4.10 GiB
Duration                    : 1 h 49 min
Overall bit rate            : 5 386 kb/s
Movie name                  : Пограбування / Heist (2001) [3xUkr,Eng sub.Eng] 720p [Hurtom]
Encoded date                : UTC 2019-06-14 05:45:40
Writing application         : v34.0.0 ('Sight and Seen') 64-bit
Writing library             : libebml v1.3.7 + v1.5.0
Cover                       : Yes
Attachments                 : cover.jpg

Video
ID                          : 1
Format                      : AVC
Format/Info                 : Advanced Video Codec
Format profile              : [email protected]
Format settings             : 2 Ref Frames
Format settings, CABAC      : No
Format settings, Reference  : 2 frames
Codec ID                    : V_MPEG4/ISO/AVC
Duration                    : 1 h 49 min
Bit rate                    : 3 935 kb/s
Width                       : 1 276 pixels
Height                      : 720 pixels
Display aspect ratio        : 16:9
Original display aspect rat : 16:9
Frame rate mode             : Constant
Frame rate                  : 23.976 (24000/1001) FPS
Color space                 : YUV
Chroma subsampling          : 4:2:0
Bit depth                   : 8 bits
Scan type                   : Progressive
Bits/(Pixel*Frame)          : 0.179
Stream size                 : 3.00 GiB (73%)
Title                       : Пограбування / Heist (2001) 720p
Language                    : English
Default                     : Yes
Forced                      : No
Color range                 : Limited
Color primaries             : BT.709
Transfer characteristics    : BT.709
Matrix coefficients         : BT.709

Audio #1
ID                          : 2
Format                      : AC-3
Format/Info                 : Audio Coding 3
Commercial name             : Dolby Digital
Codec ID                    : A_AC3
Duration                    : 1 h 49 min
Bit rate mode               : Constant
Bit rate                    : 192 kb/s
Channel(s)                  : 2 channels
Channel layout              : L R
Sampling rate               : 48.0 kHz
Frame rate                  : 31.250 FPS (1536 SPF)
Bit depth                   : 16 bits
Compression mode            : Lossy
Stream size                 : 150 MiB (4%)
Title                       : MVO [AMC], 2.0 192 Kbps
Language                    : Ukrainian
Service kind                : Complete Main
Default                     : Yes
Forced                      : No

Audio #2
ID                          : 3
Format                      : AC-3
Format/Info                 : Audio Coding 3
Commercial name             : Dolby Digital
Codec ID                    : A_AC3
Duration                    : 1 h 49 min
Bit rate mode               : Constant
Bit rate                    : 384 kb/s
Channel(s)                  : 6 channels
Channel layout              : L R C LFE Ls Rs
Sampling rate               : 48.0 kHz
Frame rate                  : 31.250 FPS (1536 SPF)
Bit depth                   : 16 bits
Compression mode            : Lossy
Delay relative to video     : 15 ms
Stream size                 : 300 MiB (7%)
Title                       : DVO [TVi], 5.1 [pseudo 5.1] 384 Kbps
Language                    : Ukrainian
Service kind                : Complete Main
Default                     : No
Forced                      : No

Audio #3
ID                          : 4
Format                      : AC-3
Format/Info                 : Audio Coding 3
Commercial name             : Dolby Digital
Codec ID                    : A_AC3
Duration                    : 1 h 49 min
Bit rate mode               : Constant
Bit rate                    : 384 kb/s
Channel(s)                  : 6 channels
Channel layout              : L R C LFE Ls Rs
Sampling rate               : 48.0 kHz
Frame rate                  : 31.250 FPS (1536 SPF)
Bit depth                   : 16 bits
Compression mode            : Lossy
Delay relative to video     : 15 ms
Stream size                 : 300 MiB (7%)
Title                       : DVO [Kino], 5.1 [pseudo 5.1] 384 Kbps
Language                    : Ukrainian
Service kind                : Complete Main
Default                     : No
Forced                      : No

Audio #4
ID                          : 5
Format                      : AC-3
Format/Info                 : Audio Coding 3
Commercial name             : Dolby Digital
Codec ID                    : A_AC3
Duration                    : 1 h 49 min
Bit rate mode               : Constant
Bit rate                    : 384 kb/s
Channel(s)                  : 6 channels
Channel layout              : L R C LFE Ls Rs
Sampling rate               : 48.0 kHz
Frame rate                  : 31.250 FPS (1536 SPF)
Bit depth                   : 16 bits
Compression mode            : Lossy
Stream size                 : 300 MiB (7%)
Language                    : English
Service kind                : Complete Main
Default                     : No
Forced                      : No

Text
ID                          : 6
Format                      : UTF-8
Codec ID                    : S_TEXT/UTF8
Codec ID/Info               : UTF-8 Plain Text
Language                    : English
Default                     : No
Forced                      : No

Menu
00:00:00.000                : en:Love of Gold
00:04:21.094                : en:ON Camera
00:09:52.175                : en:Brass Ring
00:13:56.336                : en:Burnt and Busted
00:19:13.778                : en:Terms and Conditions
00:21:09.852                : en:Marking Betty
00:23:51.847                : en:Roadside Stop
00:30:19.484                : en:Thieves Fall Out
00:35:55.487                : en:Night Visitors
00:43:30.316                : en:Go-Getters
00:45:42.615                : en:The Lady Is Sincere
00:48:38.916                : en:Keys to the Caper
00:54:16.462                : en:Mess to Clean Up
00:58:24.918                : en:Boom!
01:02:01.509                : en:Pillaging the Plane
01:06:49.339                : en:Left Behind
01:11:43.508                : en:What's The Problem?
01:14:45.982                : en:Taken for a Ride
01:18:25.576                : en:Hell of a Thing
01:20:47.217                : en:Retaking Shape
01:24:34.278                : en:Pinky's Meet
01:28:23.507                : en:Out on a Limb
01:32:45.727                : en:Shootout
01:35:31.309                : en:Last Words
01:36:33.288                : en:Exchanging Tips
01:39:09.861                : en:The Dude Is Insincere
01:41:49.979                : en:Under Wraps
01:43:23.906                : en:End Credits
Скріншоти
Джерело: &
Подяка за українські доріжки панам rooster, bodia87, kryk-v.ya., drop_plz; за постер - п.rooster'у.


Срібний реліз (на рейтинг впливає 50% завантаженого)
 Трекер:    Зареєстрований   

Завантажити / скачати фільм українською



відео для новачків



 Зареєстрований:   2019-06-14 11:00
 Розмір:   4.1 GB 
 Оцінка фільму:   9.6/10 (Голосів: 7)
 ЗАЛИШАЙТЕСЬ ЯКОМОГА ДОВШЕ НА РОЗДАЧІ! ЗАВАНТАЖИВ САМ - ДАЙ ЗАВАНТАЖИТИ ІНШИМ!
   
Інші релізи
   Пограбування / Heist (2001) 1080p 3xUkr/Eng | Sub Eng drop_plz  1 / 0   12.51 GB   2020-02-28 17:57 
   Пограбування / Heist (2001) AVC 3xUkr/Eng | Sub Eng Arsenfpu  3 / 0   2.49 GB   2019-11-24 22:29 
   Пограбування / Heist (2001) 3xUkr/Eng drop_plz  1 / 0   2.16 GB   2019-06-13 22:25 
   Пограбування / Heist (2001) AVC 2xUkr/Eng | Sub Eng bodia87  2 / 0   2.83 GB   2013-03-10 21:59 
Ваш часовий пояс: GMT + 2 Години

Нова тема   Відповісти