Формула 1. Сезон 2019. Етап 7. Гран-Прі Канади. Гонка (09.06.2019) 720p Ukr/Pol

Нові коментарі

Нова тема   Відповісти
Останній раз роздавалося elena. (2020-07-13)
Автор Повідомлення
sergiyko.5 
VIP


З нами з: 25.02.16
Востаннє: 29.10.20
Повідомлень: 3669

2019-06-13 21:27  
Формула 1. Сезон 2019. Етап 7. Гран-Прі Канади. Гонка (09.06.2019) 720p Ukr/Pol

Формула 1. Сезон 2019. Етап 7. Гран-Прі Канади. Гонка (09.06.2019) 720p Ukr/Pol

Жанр: Перегони Формули 1
Країна: Канада
Телеканал: Eleven Sports 1
Коментатор: Максим Подзігун

Опис:
Гонка сьомого етапу Гран-Прі Канади 2019 року.


Якість:

Відео:кодек: розмір кадру: 1280 х 720 бітрейт: 3500 кб/с
Аудіо 1: мова: українська кодек: 2.0 бітрейт: 192 кб/с
Аудіо 2: мова: польська кодек: 2.0 бітрейт: 192 кб/с
Тривалість:
01:56:30
Про файл:
General
Unique ID : 148504307206402038851755509479615093189 (0x6FB8E3A3649AA3FA4F8CBD772C11D9C5)
Complete name : G:\Torrents2\SPORT\Formula 1\F1.2019.Race\F1.2019.07.Canadian.Race.720p.HDTV.Ukr.Pol.
Format :
Format version : Version 4
File size : 3.14 GiB
Duration : 1 h 56 min
Overall bit rate : 3 856 kb/s
Encoded date : UTC 2019-06-13 15:58:21
Writing application : v34.0.0 ('Sight and Seen') 64-bit
Writing library : libebml v1.3.7 + v1.5.0

Video
ID : 1
Format : AVC
Format/Info : Advanced Video Codec
Format profile : [email protected]
Format settings : CABAC / 3 Ref Frames
Format settings, CABAC : Yes
Format settings, Reference : 3 frames
Codec ID : V_MPEG4/ISO/AVC
Duration : 1 h 56 min
Bit rate : 3 501 kb/s
Width : 1 280 pixels
Height : 720 pixels
Display aspect ratio : 16:9
Frame rate mode : Constant
Frame rate : 50.000 FPS
Color space : YUV
Chroma subsampling : 4:2:0
Bit depth : 8 bits
Scan type : Progressive
Bits/(Pixel*Frame) : 0.076
Stream size : 2.85 GiB (91%)
Language : English
Default : Yes
Forced : No

Audio #1
ID : 2
Format : AC-3
Format/Info : Audio Coding 3
Commercial name : Dolby Digital
Codec ID : A_AC3
Duration : 1 h 56 min
Bit rate mode : Constant
Bit rate : 192 kb/s
Channel(s) : 2 channels
Channel layout : L R
Sampling rate : 48.0 kHz
Frame rate : 31.250 FPS (1536 SPF)
Bit depth : 16 bits
Compression mode : Lossy
Stream size : 160 MiB (5%)
Language : Ukrainian
Service kind : Complete Main
Default : Yes
Forced : Yes

Audio #2
ID : 3
Format : AC-3
Format/Info : Audio Coding 3
Commercial name : Dolby Digital
Codec ID : A_AC3
Duration : 1 h 56 min
Bit rate mode : Constant
Bit rate : 160 kb/s
Channel(s) : 2 channels
Channel layout : L R
Sampling rate : 48.0 kHz
Frame rate : 31.250 FPS (1536 SPF)
Bit depth : 16 bits
Compression mode : Lossy
Delay relative to video : 8 ms
Stream size : 133 MiB (4%)
Language : Polish
Service kind : Complete Main
Default : No
Forced : No
Скріншоти:


Зведення: sergiyko


 Трекер:    Зареєстрований   

Завантажити / скачати торрент



відео для новачків



 Зареєстрований:   2019-06-13 21:27
 Розмір:   3.14 GB 
 Оцінка:   9.8/10 (Голосів: 6)
   
sergiyko.5 
VIP


З нами з: 25.02.16
Востаннє: 29.10.20
Повідомлень: 3669

2019-06-22 16:50  
Максим Подзiгун заявив що буде продавати свої записи гонок та квалiфiкацiй.

Я вiд сьогоднi перестаю пiдтримувати Формулу 1 в Українi.

Farazoon 
Частий відвідувач


З нами з: 12.04.12
Востаннє: 25.10.20
Повідомлень: 27

2019-06-22 18:23  
sergiyko.5
сумно це чути, поки що скачав із фекс, певно ще лавочку не прикрили

forsage29 
Новенький


З нами з: 24.07.12
Востаннє: 26.10.20
Повідомлень: 20

2019-06-22 19:32  
Farazoon
а є посилання на фекс?

Umbrella.Corps 
Свій


З нами з: 09.04.17
Востаннє: 28.10.20
Повідомлень: 61

2019-06-22 21:06  
погано...
Farazoon 
Частий відвідувач


З нами з: 12.04.12
Востаннє: 25.10.20
Повідомлень: 27

2019-06-23 10:20  
на рутрекері є роздача від шеви із укр доріжкою
DeLorenzo 
Новенький


З нами з: 07.07.12
Востаннє: 11.06.20
Повідомлень: 2

2019-06-23 20:09  
sergiyko.5 написано:
Максим Подзiгун заявив що буде продавати свої записи гонок та квалiфiкацiй.

от....... Подзігун

sergiykos 
Новенький


З нами з: 28.05.18
Востаннє: 25.10.20
Повідомлень: 6

2019-06-23 22:59  
sergiyko.5 написано:

Максим Подзiгун заявив що буде продавати свої записи гонок та квалiфiкацiй.

Я вiд сьогоднi перестаю пiдтримувати Формулу 1 в Українi.


Хто зна, якщо там символічна сума, може хтось і буде дивитися. Мабуть фінансами не все гаразд, бо в останню гонку взагалі реклама "інвестиційного" фонду була (зазвичай це якісь лохотрони типу форекса).

Зі своєї сторони рекомендую озвучку від SkySport бо там радіопереговори нормально чють,а також є включеня з пітлейну з самим свіжими новинами-інформаціює-крментарями.

Methos_5000 
Новенький


З нами з: 04.05.17
Востаннє: 18.02.20
Повідомлень: 6

2019-07-02 12:03  
sergiyko.5
Я вiд сьогоднi перестаю пiдтримувати Формулу 1 в Українi.


Звертаюсь до Вас з великим проханням. На припиняйте, будь ласка, Ваши викладки. Адже я постійно користувалася саме Вашими матеріалами.
Будь ласка, поверниться знов до викладки торентів подальших гонок...

armogun 
Попереджень: 1
Попереджень: 1 


З нами з: 04.05.13
Востаннє: 27.10.20
Повідомлень: 701

2019-07-07 15:17  
[quote]Максим Подзiгун заявив що буде продавати свої записи гонок та квалiфiкацiй.
[/quote]

Та хоч взагалі закриється, з тим що можна почути на фоні, його мокальську лайку. Йому потрібно найняти саппорта щоб дивився за гонкою і виправляв його. Ото коли ландо зійшов - вибух на виході з боксів перед тим був залишилося без уваги, . "Вільямс догнав Ботаса бо Рікардо боєць і його не пускав " - це був коловий, його обігнали. І на кінець абсолютно вбивчий коментар щодо 5 секунд штрафу Веттелю, я б подивився як він на такій швидкості на траві зміг щось зробити - соромно таке не знати, але 4 колеса на траві - боліт неконтрольований , він і так молодець що віддався інерції і взагалі його втримав і не розбив. " Я міг бути суддею кіа, я що казав " КІА 10 кіл думало а потім, чого і можна було очікувати від корумпованої структури " дало 5 сек штрафу . У цьому випадку мали попросити віддати позицію відразу, які в гепу 5 секунд ?, тож так - такі як Подзігун "неучі " ( продажні ) як він сказав про Веттеля, і судять зараз в КІА

sergiyko.5 
VIP


З нами з: 25.02.16
Востаннє: 29.10.20
Повідомлень: 3669

2019-07-07 15:28  
armogun
Може досить тролити в темах формули?

armogun 
Попереджень: 1
Попереджень: 1 


З нами з: 04.05.13
Востаннє: 27.10.20
Повідомлень: 701

2019-07-07 15:31  
[quote="sergiyko.5"]Може досить тролити в темах формули?[/quote]
А де тут тролинг побачив ?

Ваш часовий пояс: GMT + 2 Години

Нова тема   Відповісти