Сімпсони у кіно / The Simpsons Movie (2007) 1080p H.265 2xUkr/Eng | Sub Ukr/Eng

Нові коментарі

Нова тема   Відповісти
Автор Повідомлення
Anonymous 







2019-06-13 18:45  
Сімпсони у кіно / The Simpsons Movie (2007) 1080p H.265 2xUkr/Eng | Sub Ukr/Eng

Сімпсони у кіно / The Simpsons Movie (2007) 1080p H.265 2xUkr/Eng | Sub Ukr/Eng


Жанр: анімація, комедія, пригодницький, сімейний
Країна: США
Кінокомпанія: 20th Century Fox Film Corporation, Gracie Films
Режисер: Девід Сільверман
Актори: Ден Кастелланета, Джулі Кавнер, Ненсі Картрайт, Ярдлі Сміт, Хенк Азарія, Гаррі Шірер, Памела Хейден, Тресс МакНілл, Альберт Брукс, Карл Відерготт, Марсія Воллес, Рассі Тейлор, Меггі Росвел, Філіп Розенталь, Біллі Джо Армстронг

Сюжет:
Після того, як Гомер скинув відходи в озеро, Спрінгфілд оголосили карантинною зоною і накрили гігантським скляним куполом, а місцеві жителі почали полювання на Сімпсонів за те, що їх відрізали від решти світу...

Тривалість: 01:26:44
Якість:

Відео:
кодек: H.265 (HEVC)
розмір кадру: 1920 x 800
бітрейт: 2 598 кб/с
бітова глибина: 10 біт

Увага! Перед завантаженням переконайтесь, що ваш пристрій відтворення (та/або ПЗ) підтримує H.265 (HEVC)

Аудіо # 1:
мова: українська
озвучення: професійне дубльоване
кодек: AC-3 2.0
бітрейт: 256 кб/с
примітка: Голос Гомера - Євген Малуха

Аудіо # 2:
мова: українська
озвучення: професійне дубльоване
кодек: AC-3 5.1
бітрейт: 384 кб/с
примітка: Голос Гомера - Микола Луценко

Аудіо # 3:
мова: англійська
озвучення: оригінал
кодек: 5.1
бітрейт: 1510 кб/с

Аудіо # 4:
мова: англійська
озвучення: коментарі | Commentary with Creators James L. Brooks and Matt Groening, writer/producers Al Jean and Mike Scully, director David Silverman, plus stars Dan Castellaneta and Yeardley Smith
кодек: AC-3 2.0
бітрейт: 224 кб/с

Аудіо # 5:
мова: англійська
озвучення: коментарі | Commentary with Director David Silverman, writers/producers Mike B. Anderson, Steven Dean Moore and Rich Moore
кодек: AC-3 2.0
бітрейт: 224 кб/с

Субтитри # 1-2: (Forсed, Full)
мова: українська
тип: програмні (м'які)
формат: *.srt

Субтитри # 3-4: (Forсed, Full)
мова: англійська
тип: програмні (м'які)
формат: *.srt


Інформація про файл
Код:
General
Unique ID                                : 141308799959264884649789988571485105583 (0x6A4F15BD9FFDFABC41A042509100EDAF)
Complete name                            : The Simpsons Movie (2007) 1080p H.265 [2xUKR_ENG] [Hurtom].
Format                                   :
Format version                           : Version 4
File size                                : 3.15 GiB
Duration                                 : 1 h 26 min
Overall bit rate                         : 5 199 kb/s
Movie name                               : Сімпсони у кіно / The Simpsons Movie (2007)
Encoded date                             : UTC 2020-11-29 09:59:13
Writing application                      : v20.0.0 ('I Am The Sun') 64-bit
Writing library                          : libebml v1.3.5 + v1.4.8
Cover                                    : Yes
Attachments                              : Cover.jpg

Video
ID                                       : 1
Format                                   : HEVC
Format/Info                              : High Efficiency Video Coding
Format profile                           : Main [email protected]@High
Codec ID                                 : V_MPEGH/ISO/HEVC
Duration                                 : 1 h 26 min
Bit rate                                 : 2 599 kb/s
Width                                    : 1 920 pixels
Height                                   : 800 pixels
Display aspect ratio                     : 2.40:1
Frame rate mode                          : Constant
Frame rate                               : 23.976 (24000/1001) FPS
Color space                              : YUV
Chroma subsampling                       : 4:2:0
Bit depth                                : 10 bits
Bits/(Pixel*Frame)                       : 0.071
Stream size                              : 1.57 GiB (50%)
Title                                    : Сімпсони у кіно / The Simpsons Movie (2007)
Writing library                          : x265 2.9+9-f74003e88622:[Windows][GCC 8.2.0][64 bit] 10bit
Encoding settings                        : cpuid=1111039 / frame-threads=13 / numa-pools=12 / wpp / no-pmode / no-pme / no-psnr / no-ssim / log-level=3 / input-csp=1 / input-res=1920x800 / interlace=0 / total-frames=0 / level-idc=41 / high-tier=1 / uhd-bd=0 / ref=5 / allow-non-conformance / no-repeat-headers / annexb / no-aud / no-hrd / info / hash=0 / no-temporal-layers / open-gop / min-keyint=23 / keyint=240 / gop-lookahead=0 / bframes=8 / b-adapt=2 / b-pyramid / bframe-bias=0 / rc-lookahead=60 / lookahead-slices=4 / scenecut=40 / radl=0 / no-intra-refresh / ctu=64 / min-cu-size=8 / rect / amp / max-tu-size=32 / tu-inter-depth=4 / tu-intra-depth=4 / limit-tu=0 / rdoq-level=2 / dynamic-rd=0.00 / no-ssim-rd / signhide / no-tskip / nr-intra=0 / nr-inter=0 / no-constrained-intra / no-strong-intra-smoothing / max-merge=5 / limit-refs=2 / limit-modes / me=3 / subme=7 / merange=57 / temporal-mvp / weightp / weightb / no-analyze-src-pics / deblock=-3:-3 / no-sao / no-sao-non-deblock / rd=6 / no-early-skip / rskip / no-fast-intra / no-tskip-fast / no-cu-lossless / b-intra / no-splitrd-skip / rdpenalty=0 / psy-rd=2.00 / psy-rdoq=1.00 / no-rd-refine / no-lossless / cbqpoffs=0 / crqpoffs=0 / rc=crf / crf=20.0 / qcomp=0.70 / qpstep=4 / stats-write=0 / stats-read=0 / vbv-maxrate=50000 / vbv-bufsize=50000 / vbv-init=0.9 / crf-max=0.0 / crf-min=0.0 / ipratio=1.40 / pbratio=1.30 / aq-mode=2 / aq-strength=1.00 / no-cutree / zone-count=0 / no-strict-cbr / qg-size=32 / no-rc-grain / qpmax=69 / qpmin=0 / no-const-vbv / sar=1 / overscan=0 / videoformat=5 / range=0 / colorprim=1 / transfer=1 / colormatrix=1 / chromaloc=0 / display-window=0 / max-cll=0,0 / min-luma=0 / max-luma=1023 / log2-max-poc-lsb=8 / vui-timing-info / vui-hrd-info / slices=1 / no-opt-qp-pps / no-opt-ref-list-length-pps / no-multi-pass-opt-rps / scenecut-bias=0.05 / no-opt-cu-delta-qp / aq-motion / no-hdr / no-hdr-opt / no-dhdr10-opt / no-idr-recovery-sei / analysis-reuse-level=5 / scale-factor=0 / refine-intra=0 / refine-inter=0 / refine-mv=0 / no-limit-sao / ctu-info=0 / no-lowpass-dct / refine-mv-type=0 / copy-pic=1 / max-ausize-factor=1.0 / no-dynamic-refine / no-single-sei
Language                                 : English
Default                                  : Yes
Forced                                   : No
Color range                              : Limited
Color primaries                          : BT.709
Transfer characteristics                 : BT.709
Matrix coefficients                      : BT.709

Audio #1
ID                                       : 2
Format                                   : AC-3
Format/Info                              : Audio Coding 3
Commercial name                          : Dolby Digital
Codec ID                                 : A_AC3
Duration                                 : 1 h 26 min
Bit rate mode                            : Constant
Bit rate                                 : 256 kb/s
Channel(s)                               : 2 channels
Channel layout                           : L R
Sampling rate                            : 44.1 kHz
Frame rate                               : 28.711 FPS (1536 SPF)
Compression mode                         : Lossy
Stream size                              : 159 MiB (5%)
Title                                    : AC-3 / 2.0 Ch / 256 kbps / DUB / Simpsonsua.tv (Гомер - Євген Малуха)
Language                                 : Ukrainian
Service kind                             : Complete Main
Default                                  : Yes
Forced                                   : Yes

Audio #2
ID                                       : 3
Format                                   : AC-3
Format/Info                              : Audio Coding 3
Commercial name                          : Dolby Digital
Codec ID                                 : A_AC3
Duration                                 : 1 h 26 min
Bit rate mode                            : Constant
Bit rate                                 : 384 kb/s
Channel(s)                               : 6 channels
Channel layout                           : L R C LFE Ls Rs
Sampling rate                            : 48.0 kHz
Frame rate                               : 31.250 FPS (1536 SPF)
Compression mode                         : Lossy
Stream size                              : 238 MiB (7%)
Title                                    : AC-3 / 5.1 Ch / 384 kbps / DUB / DVD (Гомер - Микола Луценко)
Language                                 : Ukrainian
Service kind                             : Complete Main
Default                                  : No
Forced                                   : No

Audio #3
ID                                       : 4
Format                                   :
Format/Info                              : Digital Theater Systems
Codec ID                                 : A_DTS
Duration                                 : 1 h 26 min
Bit rate mode                            : Constant
Bit rate                                 : 1 509 kb/s
Channel(s)                               : 6 channels
Channel layout                           : C L R Ls Rs LFE
Sampling rate                            : 48.0 kHz
Frame rate                               : 93.750 FPS (512 SPF)
Bit depth                                : 24 bits
Compression mode                         : Lossy
Stream size                              : 936 MiB (29%)
Title                                    : / 5.1 Ch / 1509 kbps / Original
Language                                 : English
Default                                  : No
Forced                                   : No

Audio #4
ID                                       : 5
Format                                   : AC-3
Format/Info                              : Audio Coding 3
Commercial name                          : Dolby Digital
Codec ID                                 : A_AC3
Duration                                 : 1 h 26 min
Bit rate mode                            : Constant
Bit rate                                 : 224 kb/s
Channel(s)                               : 2 channels
Channel layout                           : L R
Sampling rate                            : 48.0 kHz
Frame rate                               : 31.250 FPS (1536 SPF)
Compression mode                         : Lossy
Stream size                              : 139 MiB (4%)
Title                                    : AC-3 / 2.0 Ch / 224 kbps / Original / Commentary with Creators James L. Brooks and Matt Groening, writer/producers Al Jean and Mike Scully, director David Silverman, plus stars Dan Castellaneta and Yeardley Smith
Language                                 : English
Service kind                             : Complete Main
Default                                  : No
Forced                                   : No

Audio #5
ID                                       : 6
Format                                   : AC-3
Format/Info                              : Audio Coding 3
Commercial name                          : Dolby Digital
Codec ID                                 : A_AC3
Duration                                 : 1 h 26 min
Bit rate mode                            : Constant
Bit rate                                 : 224 kb/s
Channel(s)                               : 2 channels
Channel layout                           : L R
Sampling rate                            : 48.0 kHz
Frame rate                               : 31.250 FPS (1536 SPF)
Compression mode                         : Lossy
Stream size                              : 139 MiB (4%)
Title                                    : AC-3 / 2.0 Ch / 224 kbps / Original / Commentary with Director David Silverman, writers/producers Mike B. Anderson, Steven Dean Moore and Rich Moore
Language                                 : English
Service kind                             : Complete Main
Default                                  : No
Forced                                   : No

Text #1
ID                                       : 7
Format                                   : UTF-8
Codec ID                                 : S_TEXT/UTF8
Codec ID/Info                            : UTF-8 Plain Text
Duration                                 : 1 h 11 min
Bit rate                                 : 2 b/s
Count of elements                        : 42
Stream size                              : 1.48 KiB (0%)
Title                                    : Forсed
Language                                 : Ukrainian
Default                                  : Yes
Forced                                   : Yes

Text #2
ID                                       : 8
Format                                   : UTF-8
Codec ID                                 : S_TEXT/UTF8
Codec ID/Info                            : UTF-8 Plain Text
Duration                                 : 1 h 25 min
Bit rate                                 : 91 b/s
Count of elements                        : 1038
Stream size                              : 57.4 KiB (0%)
Title                                    : Full
Language                                 : Ukrainian
Default                                  : No
Forced                                   : No

Text #3
ID                                       : 9
Format                                   : UTF-8
Codec ID                                 : S_TEXT/UTF8
Codec ID/Info                            : UTF-8 Plain Text
Duration                                 : 27 min 5 s
Bit rate                                 : 0 b/s
Count of elements                        : 3
Stream size                              : 88.0 Bytes (0%)
Title                                    : Forсed
Language                                 : English
Default                                  : No
Forced                                   : No

Text #4
ID                                       : 10
Format                                   : UTF-8
Codec ID                                 : S_TEXT/UTF8
Codec ID/Info                            : UTF-8 Plain Text
Duration                                 : 1 h 25 min
Bit rate                                 : 51 b/s
Count of elements                        : 950
Stream size                              : 32.2 KiB (0%)
Title                                    : Full
Language                                 : English
Default                                  : No
Forced                                   : No

Menu
00:00:00.000                             : :Itchy and Scratchy on the Moon
00:02:21.308                             : :Titles
00:04:08.039                             : :Church of Springfield
00:07:19.606                             : :Homer's Chores
00:11:07.542                             : :Bart's Bb Gun
00:16:18.728                             : :Jealous of a Pig
00:18:09.797                             : :"The Best Part!"
00:19:46.936                             : :"An Irritating Truth"
00:23:19.732                             : :Free Donuts
00:25:44.752                             : :The Epa & the President
00:30:13.270                             : :Trappuccino
00:31:54.871                             : :Homer's Pig Crap Silo Found
00:39:25.029                             : :Running From the Epa
00:44:24.996                             : :Day 37 Under the Dome
00:46:52.852                             : :Alaska
00:49:41.478                             : :Day 93 Under the Dome
00:51:36.802                             : :A New Grand Canyon
00:56:26.925                             : :Homer & the Eskimoes
01:00:40.929                             : :Seattle
01:03:57.542                             : :Captured By the Epa
01:06:07.213                             : :Impersonating a General
01:10:17.130                             : :Reunited
01:14:32.385                             : :"We Meet at Least, Whoever You Are"
01:17:33.107                             : :End Titles
Світлини




Джерело: &
Особиста оцінка: 7 - моїй подрузі не сподобалося


Авторський реліз (завантажувати можна без реєстрації)
 Трекер:    Зареєстрований   

Завантажити / скачати мультфільм українською



відео для новачків



 Зареєстрований:   2020-11-29 13:50
 Розмір:   3.15 GB 
 Оцінка мультфільму:   9.5/10 (Голосів: 13)
   
neverlest 
Новенький


З нами з: 23.01.17
Востаннє: 06.02.21
Повідомлень: 18

2019-07-17 23:11  
Прошу ознайомити, для чого качати 26ГБ мультфільму 1080п, якщо можна скачати 2.72гб ? В чому різниця, і чи вплине цей розмір на якість мультфільму при перегляді на лептопі ?
igor911 
Модератор відео


З нами з: 18.01.08
Востаннє: 25.02.21
Повідомлень: 15543

2019-07-19 08:08  
neverlest, 26 Гб - то ремукс з оригінального блурей диска (Remux). Тобто офіційний незмінений відеоряд, який продається на дисках. Максимальна якість.
Тут - ріп (), стиснене за спеціальним алгоритмом відео з блурея для зменшення розміру. Якість може бути різною, залежить від налаштувань кодувальника, з якими робився цей ріп. Тут ріп зроблено з параметром crf=20, що теоретично має давати якість десь між середньою і низькою.
Також треба враховувати, що тут відносно новий кодек H.265 (HEVC), для відтворення якого може не вистачити потужності старих чи бюджетних ноутбуків.

Додано через 7 хвилин 16 секунд:

Це все має сенс при виводі на якісний екран FullHD (телек > 32", IPS матриця). При перегляді на екрані ноутбука (особливо в моделях з дешевими TN матрицями) оптимальним по співвідношенню вага/якість буде якісний ріп в 720p.

Anonymous 







2020-11-29 13:50  
Додано озвучення від 
Ваш часовий пояс: GMT + 2 Години

Нова тема   Відповісти