Авіатор / The Aviator (2004) 1080p H.265 2xUkr/Eng | Sub Ukr/Eng

Нові коментарі

Нова тема   Відповісти
Автор Повідомлення
Anonymous 







2019-06-13 19:42  
Авіатор / The Aviator (2004) 1080p H.265 2xUkr/Eng | Sub Ukr/Eng

Авіатор / The Aviator (2004) 1080p H.265 2xUkr/Eng | Sub Ukr/Eng


Жанр: драма, біографічний, історичний
Країна: США
Кінокомпанія: Miramax Films, Warner Brothers
Режисер: Мартін Скорсезе
Актори: Леонардо Ді Капріо, Кейт Бланшетт, Кейт Бекінсейл, Джон Рейлі, Алан Алда, Алек Болдвін

Сюжет:
Фільм оповідає про долю американського мільйонера, винахідника та режисера, прототипом якого є Говард Г'юз.

Син винахідника і промисловця, Говард з молодих років має можливість займатися дорогими технічними розробками та присвячує себе авіації. Крім цього, Г'юз знімає у Голлівуді фільм про битву винищувачів часів Першої світової («Ангели пекла»), який на ті часи (кінець 1920-х) є дуже дорогим. Г'юз нарешті отримує фінансування, та все ж прокат фільму виявляється успішним і Г'юз може продовжувати свій бізнес, будівництво і випробування літаків нового покоління.

Починається війна, Міністерство оборони США замовляє Г'юзу розробку літака-розвідника. Проте війна закінчується, а літаки так і не зроблені. Сенат і ФБР проводять розслідування. В цей час у Г'юза розвивається сильний синдром нав'язливого стану, яким він страждав ще в дитинстві.

Тривалість: 02:50:09
Якість:
Відео:
кодек: H.265 (HEVC)
розмір кадру: 1920 x 816
бітрейт: 5 749 кб/с
бітова глибина: 10 біт
Увага! Перед завантаженням переконайтесь, що ваш пристрій відтворення (та/або ПЗ) підтримує H.265 (HEVC)

Аудіо # 1:
мова: українська
переклад: двоголосий закадровий
кодек: AC-3 2.0
бітрейт: 192 кб/с

Аудіо # 2:
мова: українська
переклад: багатоголосий закадровий
кодек: AC-3 2.0
бітрейт: 192 кб/с

Аудіо # 3:
мова: англійська
переклад: оригінал
кодек: AC-3 5.1
бітрейт: 640 кб/с

Субтитри # 1:
мова: українська (Full [Hurtom-ivan vyrvyvuho, wolesj]),
тип: програмні (м'які)
формат: *.srt

Субтитри # 2:
мова: англійська (Full),
тип: програмні (м'які)
формат: *.srt


Info
Код:
General
Unique ID                                : 323108257777532373552190749991935149810 (0xF314630B6FB0CC110CFFDB0AB0F406F2)
Complete name                            : F:\Video\The Aviator (2004) 1080p H.265 [2xUKR_ENG] [Hurtom].
Format                                   :
Format version                           : Version 4 / Version 2
File size                                : 8.05 GiB
Duration                                 : 2 h 50 min
Overall bit rate                         : 6 776 kb/s
Movie name                               : Авіатор / The Aviator (2004)
Encoded date                             : UTC 2019-06-12 07:03:24
Writing application                      : v20.0.0 ('I Am The Sun') 64-bit
Writing library                          : libebml v1.3.5 + v1.4.8
Cover                                    : Yes
Attachments                              : cover.jpg

Video
ID                                       : 1
Format                                   : HEVC
Format/Info                              : High Efficiency Video Coding
Format profile                           : Main [email protected]@Main
Codec ID                                 : V_MPEGH/ISO/HEVC
Duration                                 : 2 h 50 min
Bit rate                                 : 5 749 kb/s
Width                                    : 1 920 pixels
Height                                   : 816 pixels
Display aspect ratio                     : 2.35:1
Frame rate mode                          : Constant
Frame rate                               : 23.976 (24000/1001) FPS
Color space                              : YUV
Chroma subsampling                       : 4:2:0
Bit depth                                : 10 bits
Bits/(Pixel*Frame)                       : 0.153
Stream size                              : 6.83 GiB (85%)
Title                                    : Авіатор / The Aviator (2004)
Writing library                          : x265 3.0_Au+18-768ab38fd5fd:[Windows][GCC 8.3.0][64 bit] 10bit
Encoding settings                        : cpuid=1111039 / frame-threads=3 / numa-pools=8 / wpp / no-pmode / no-pme / no-psnr / no-ssim / log-level=2 / input-csp=1 / input-res=1920x816 / interlace=0 / total-frames=244777 / level-idc=0 / high-tier=1 / uhd-bd=0 / ref=4 / no-allow-non-conformance / no-repeat-headers / annexb / no-aud / no-hrd / info / hash=0 / no-temporal-layers / open-gop / min-keyint=23 / keyint=250 / gop-lookahead=0 / bframes=4 / b-adapt=2 / b-pyramid / bframe-bias=0 / rc-lookahead=25 / lookahead-slices=4 / scenecut=40 / radl=0 / no-splice / no-intra-refresh / ctu=64 / min-cu-size=8 / rect / no-amp / max-tu-size=32 / tu-inter-depth=1 / tu-intra-depth=1 / limit-tu=0 / rdoq-level=2 / dynamic-rd=0.00 / no-ssim-rd / signhide / no-tskip / nr-intra=0 / nr-inter=0 / no-constrained-intra / strong-intra-smoothing / max-merge=3 / limit-refs=3 / limit-modes / me=3 / subme=3 / merange=57 / temporal-mvp / weightp / no-weightb / no-analyze-src-pics / deblock=0:0 / sao / no-sao-non-deblock / rd=4 / no-early-skip / rskip / no-fast-intra / no-tskip-fast / no-cu-lossless / no-b-intra / no-splitrd-skip / rdpenalty=0 / psy-rd=2.00 / psy-rdoq=1.00 / no-rd-refine / no-lossless / cbqpoffs=0 / crqpoffs=0 / rc=abr / bitrate=5750 / qcomp=0.60 / qpstep=4 / stats-write=0 / stats-read=2 / cplxblur=20.0 / qblur=0.5 / ipratio=1.40 / pbratio=1.30 / aq-mode=3 / aq-strength=1.00 / cutree / zone-count=0 / no-strict-cbr / qg-size=32 / no-rc-grain / qpmax=69 / qpmin=0 / no-const-vbv / sar=0 / overscan=0 / videoformat=5 / range=0 / colorprim=2 / transfer=2 / colormatrix=2 / chromaloc=0 / display-window=0 / max-cll=0,0 / min-luma=0 / max-luma=1023 / log2-max-poc-lsb=8 / vui-timing-info / vui-hrd-info / slices=1 / no-opt-qp-pps / no-opt-ref-list-length-pps / multi-pass-opt-rps / scenecut-bias=0.05 / no-opt-cu-delta-qp / aq-motion / no-hdr / no-hdr-opt / no-dhdr10-opt / no-idr-recovery-sei / analysis-reuse-level=5 / scale-factor=0 / refine-intra=0 / refine-inter=0 / refine-mv=0 / refine-ctu-distortion=0 / no-limit-sao / ctu-info=0 / no-lowpass-dct / refine-analysis-type=0 / copy-pic=1 / max-ausize-factor=1.0 / no-dynamic-refine / no-single-sei / no-hevc-aq / no-svt / qp-adaptation-range=1.00
Default                                  : Yes
Forced                                   : No

Audio #1
ID                                       : 2
Format                                   : AC-3
Format/Info                              : Audio Coding 3
Codec ID                                 : A_AC3
Duration                                 : 2 h 50 min
Bit rate mode                            : Constant
Bit rate                                 : 192 kb/s
Channel(s)                               : 2 channels
Channel positions                        : Front: L R
Sampling rate                            : 48.0 kHz
Frame rate                               : 31.250 FPS (1536 SPF)
Bit depth                                : 16 bits
Compression mode                         : Lossy
Stream size                              : 234 MiB (3%)
Title                                    : ДЗ - 1+1, 2.0, 192 Kbps
Language                                 : Ukrainian
Service kind                             : Complete Main
Default                                  : Yes
Forced                                   : Yes

Audio #2
ID                                       : 3
Format                                   : AC-3
Format/Info                              : Audio Coding 3
Codec ID                                 : A_AC3
Duration                                 : 2 h 50 min
Bit rate mode                            : Constant
Bit rate                                 : 192 kb/s
Channel(s)                               : 2 channels
Channel positions                        : Front: L R
Sampling rate                            : 48.0 kHz
Frame rate                               : 31.250 FPS (1536 SPF)
Bit depth                                : 16 bits
Compression mode                         : Lossy
Stream size                              : 234 MiB (3%)
Title                                    : БЗ - Cine+, 2.0, 192 Kbps
Language                                 : Ukrainian
Service kind                             : Complete Main
Default                                  : No
Forced                                   : No

Audio #3
ID                                       : 4
Format                                   : AC-3
Format/Info                              : Audio Coding 3
Codec ID                                 : A_AC3
Duration                                 : 2 h 50 min
Bit rate mode                            : Constant
Bit rate                                 : 640 kb/s
Channel(s)                               : 6 channels
Channel positions                        : Front: L C R, Side: L R, LFE
Sampling rate                            : 48.0 kHz
Frame rate                               : 31.250 FPS (1536 SPF)
Bit depth                                : 16 bits
Compression mode                         : Lossy
Stream size                              : 779 MiB (9%)
Title                                    : Original, 5.1, 640 Kbps
Language                                 : English
Service kind                             : Complete Main
Default                                  : No
Forced                                   : No

Text #1
ID                                       : 5
Format                                   : UTF-8
Codec ID                                 : S_TEXT/UTF8
Codec ID/Info                            : UTF-8 Plain Text
Duration                                 : 2 h 43 min
Bit rate                                 : 112 b/s
Count of elements                        : 2079
Stream size                              : 134 KiB (0%)
Title                                    : Full [Hurtom-ivan vyrvyvuho, wolesj]
Language                                 : Ukrainian
Default                                  : Yes
Forced                                   : No

Text #2
ID                                       : 6
Format                                   : UTF-8
Codec ID                                 : S_TEXT/UTF8
Codec ID/Info                            : UTF-8 Plain Text
Duration                                 : 2 h 42 min
Bit rate                                 : 73 b/s
Count of elements                        : 2326
Stream size                              : 87.3 KiB (0%)
Title                                    : Full
Language                                 : English
Default                                  : No
Forced                                   : No

Menu
00:00:00.000                             : :1. Young Howard
00:02:19.514                             : :2. "Welcome to Hollywood," Hell's Angels Year One
00:10:35.927                             : :3. Hell's Angels Year Two
00:17:34.053                             : :4. Hell's Angels Year Three
00:21:38.380                             : :5. "Howard Hughes' $4 Million Epic"
00:26:43.602                             : :6. "Follow-Through Is Everything in Golf, Just Like Life"
00:30:21.862                             : :7. TWA... "Tiger by the Tail"
00:32:40.333                             : :8. "I'm Sure You Know Errol"
00:37:11.813                             : :9. Teaching Kate to Fly
00:42:07.525                             : :10. H-1 Racer, Breaking the World Speed Record
00:47:28.763                             : :11. Letting Kate In
00:52:42.034                             : :12. Around the World in Four Days
00:54:13.917                             : :13. "Don't Worry About It Howard, She's Just Working the Room"
00:57:57.683                             : :14. Visiting the Hepburn Estate
01:03:28.638                             : :15. MPAA Outlaws Mammaries
01:08:11.921                             : :16. Selling The Hercules
01:09:19.113                             : :17. "There's Too Much Howard Hughes in Howard Hughes"
01:12:37.812                             : :18. The Constellation
01:15:58.220                             : :19. "We're Too Alike, You and I"
01:21:13.619                             : :20. Faith Domergue
01:29:43.378                             : :21. "Kill the Story," Burying the Hepburn-Tracy Scandal
01:32:45.727                             : :22. Ava Gardner
01:35:43.780                             : :23. "Show Me All the Blueprints, Show Me All the Blueprints"
01:41:16.487                             : :24. XP-11, Inaugural Flight and Crash
01:47:44.208                             : :25. Flowers From Juan Trippe
01:52:08.680                             : :26. Government Investigation
02:03:19.392                             : :27. Q-U-A-R-A-N-T-I-N-E
02:17:20.607                             : :28. The Germ-Free Zone
02:21:54.715                             : :29. Brewster Senate Hearings
02:29:49.981                             : :30. The Flying Boat
02:39:32.396                             : :31. "The Way of the Future, the Way of the Future"
02:43:35.806                             : :32. End Credits
Світлини





Джерело: &
Особиста оцінка: 0 - не дивився


Срібний реліз (на рейтинг впливає 50% завантаженого)
 Трекер:    Зареєстрований   

Завантажити / скачати фільм українською



відео для новачків



 Зареєстрований:   2019-06-13 19:42
 Розмір:   8.05 GB 
 Оцінка фільму:   10/10 (Голосів: 4)
   
Інші релізи
   Авіатор / The Aviator (2004) [Open Matte] 1080p 2xUkr/Eng | Sub Ukr/Eng Alukret  3 / 0   15.19 GB   2020-08-26 12:54 
   Авіатор / The Aviator (2004) Remux 1080p 2xUkr/Eng | Sub Ukr/Eng kryk-v.ya.  4 / 0   32.13 GB   2019-07-05 20:18 
   Авіатор / The Aviator (2004) 1080p 2xUkr/Eng | Sub Ukr/Eng Argentum  5 / 0   16.08 GB   2018-05-10 14:20 
   Авіатор / The Aviator (2004) AVC 2xUkr/Eng | Sub Ukr/Eng igor911  6 / 0   3.49 GB   2018-05-10 10:54 
   Авіатор / The Aviator (2004) 720p 2xUkr/Eng | Sub Ukr/Eng/Multi igor911  4 / 0   7.28 GB   2018-05-10 10:03 
   Авіатор / The Aviator (2004) 2xUkr/Eng Arsenfpu  5 / 0   2.65 GB   2018-05-10 00:54 
   Авіатор / The Aviator (2004) Gelios  3 / 0   2.18 GB   2017-04-23 22:34 
   Авіатор / The Aviator (2004) Eng | sub Ukr ivan vyrvyvuho  4 / 0   2.91 GB   2015-07-15 20:00 
kryk-v.ya. 
Попереджень: 1
Попереджень: 1 


З нами з: 14.02.14
Востаннє: 01.10.20
Повідомлень: 2259

2019-06-13 22:15  
на вихідних буде ще дорога з АМС...
Anonymous 







2019-06-13 22:23  
kryk-v.ya.
Оновлю реліз)

Ronnik 
Новенький


З нами з: 04.11.16
Востаннє: 29.09.20
Повідомлень: 15

2020-07-29 22:14  
Дякую
Ваш часовий пояс: GMT + 2 Години

Нова тема   Відповісти