М: Місто шукає вбивцю / M - Eine Stadt sucht einen Mörder (1931) Remux 1080p Ukr/Ger | Sub Ukr/Eng

Нові коментарі

Нова тема   Відповісти
Автор Повідомлення
MakRA 
VIP


З нами з: 11.11.18
Востаннє: 01.10.20
Повідомлень: 1120

2019-06-12 22:39  
М: Місто шукає вбивцю / M - Eine Stadt sucht einen Mörder (1931) Remux 1080p Ukr/Ger | Sub Ukr/Eng

М: Місто шукає вбивцю / M - Eine Stadt sucht einen Mörder (1931) Remux 1080p Ukr/Ger | Sub Ukr/Eng
Альтернативний постер

М: Місто шукає вбивцю / M - Eine Stadt sucht einen Mörder (1931) Remux 1080p Ukr/Ger | Sub Ukr/Eng


Жанр: нуар, трилер, кримінальний
Країна: Німеччина



Кінокомпанія: Nero-Film AG
Режисер: Фріц Ланг [Fritz Lang]
Актори: Пітер Лорре [Peter Lorre], Отто Верніке [Otto Wernicke], Теодор Лоос [Theodor Loos], Густаф Грюндгенс [Gustaf Gründgens], Фрідріх Гнасс [Friedrich Gnaß], Рудольф Блюммер [Rudolf Blümner], Георг Джон [Georg John], Франц Штайн [Franz Stein], Ернст Шталь-Нахбаур [Ernst Stahl-Nachbaur], Еллен Відманн [Ellen Widmann].

Сюжет:
В одному з міст Німеччини поліція збилася з ніг, намагаючись знайти маніяка, який убив кількох дівчаток. Виявлені докази не дають ключів до розгадки. Між тим вбивства тривають. Жителями міста поступово опановує параноя — вони готові вчинити самосуд над кожним, хто почне розмовляти з дитиною на вулиці, вони починають підозрювати своїх сусідів … Поліція проводить регулярні, але безуспішні рейди злодійськими кублами. Злочинці, яких також лякає небувала жорстокість невловимого маніяка і дратує те, що через нього виросла активність поліці, вирішують самі зловити і знешкодити маніяка...


Цікаве про фільм:

-«М» — перший звуковий фільм Фріца Ланга.
-Сюжет фільму заснований на реальних подіях справи маніяка-вбивці Петера Кюртена з Дюссельдорфа.
-Мелодію з «Пер Гюнт» при запису звуку для фільму насвистував сам Фріц Ланг. Це один з перших відомих прикладів використання в кінематографі музичної теми, пов'язаної з конкретним персонажем.
-Спочатку фільм планувалося назвати «Mörder unter uns» («Вбивця серед нас»), але ще в ході зйомок Ланг вирішив назвати фільм «М».
-Фріц Ланг стверджував, що для зйомок сцени суду над Бекертом він запросив справжніх злочинців.
-У липні 1934 року, вже після від'їзду Ланга з Німеччини, фільм був заборонений до показу нацистською цензурою.
-Фільм виходив також під назвою «M — Eine Stadt sucht einen Mörder» («М — місто шукає вбивцю»).
-В 1951 у США був випущений рімейк цього фільму, причому дія була перенесена в Лос-Анджелес. Рімейк успіху не мав.
-Через незвичайне співвідношення сторін зображення (1,20: 1), в ранніх відеовиданнях фільму кадр був помітно обрізаний зверху і знизу.
-У липні 2003 року на кінофестивалі в Кембриджі була показана відновлена версія фільму, пізніше випущена на DVD.
-За результатами голосування користувачів IMDb фільм стійко перебуває в першій сотні найпопулярніших фільмів.


Тривалість: 01:49:46
Якість: Remux 1080p [Criterion Collection]
Відео:
кодек:
розмір кадру: 1920 х 1080
бітрейт: 24,0 Mб/с

Аудіо # 1:
мова: українська
переклад: багатоголосий закадровий | ТО "Цікава ідея" на замовлення Hurtom.com
кодек: 1.0
бітрейт: 224 кб/с
Про озвучення:
Українське озвучення створено студією ТО "Цікава ідея" на замовлення Hurtom.com в рамках проекту "Хочеш кіно українською? Замовляй!"

Дякуємо користувачам, що фінансово допомогли проекту:

vifilo, yuvial, Zoryan71, bookovina, sunshadow, novns, Анонім, TriVVet, Qualcuno, ValicV, makata, painz, Шейнога Станіслав, Відьмачечок, sl.adamenko, Ihorco, vladyk, vitbol, k1k1k1, oleh_oleh, mikrom, roman.paint, chuba001, merlin_zaraza, daedan, zeleneserce, Yareban, BrMM, maksimka9112007, bsdkom, avatararij, Thaddeus, Slavko Uzhhorod, OLENKA1980, yarik_ratnik, brizident, parovoz, glogus, indiana7, rakab, grim86, bondar, ratiborsky, hello_world, Klymkiv_a, Mitrukhin, govjiogter, loiknazar, Анонім, zanevsky, КОЗАК СЕРГІЙ, "Мерзотники", Thaddeus, newvolya, Макрос, Loki, romm77, maxus.bender, Arhont, Kalynka Rosso, molotokk, Sn00pY_UA, busbus, гілка, Qualcuno, Rost3, анонім, panernest, tyma1, Vasill, орестт, vkozak77, sanyatyoma, zinkognito, fishMD, olfed111, ThugRx, serzholino16x, Yarrm, zolotoy, Volodymyr Shpikulov, partos, MisterR, lan44er, StiN, pooh007, gitaralover, Dmytro D, Avis, ivasykvv, TarasTaras, Bzick, Romdoc, kopycom, ExFinder, Roman N, B_Volodumur, alexandr_b, thefir, Dimka, somnambula, Оксана Середа, Роман Бліхарський, MarianB, sania2011, Makovej, ORFEO, Dim-ON, demydd, igor911, Golota, ppk21, MutuLI, Анонім, Джерх, Гривник, Chaka_bum, elwolf, virtus8hur, Sergo_k_s_v, NemoInFire, willian
Також дякуємо користувачам, що надали фінансову допомогу, але побажали бути анонімними.
Дакуємо трекеру Torrents.net.ua за підтримку проекту.
Аудіо # 2:
мова: німецька
переклад: оригінал
кодек: PCM 1.0
бітрейт: 1152 кб/с

Аудіо # 3:
мова: німецька
переклад: оригінал
кодек: 1.0
бітрейт: 224 кб/с

Субтитри # 1: (Full)
мова: українська
тип: програмні (м'які)
формат: *.srt
переклад з англійських субтитрів: Abyrvalg, Alinea, w2958l, contra, V_Rednaya, Ur, Mia_ua, StanislavX, Hulk1987, LEMBERG_, KetaRaketa; редагування: w2958l

Субтитри # 2: (Full)
мова: англійська
тип: програмні (м'які)
формат: *.srt

Джерело озвучення:
ТО "Цікава ідея" на замовлення Hurtom.com

Збережено оригінальні розділи, як на Blu-ray.
Info
General
Unique ID : 209049845828723628225095664089915788789 (0x9D458929DE3F9BAF63B2DA9333950DF5)
Complete name : E:\+Режисер Фріц Ланг\M (1931) Remux 1080p UkrGer sub UkrEng [Hurtom].
Format :
Format version : Version 4 / Version 2
File size : 19.8 GiB
Duration : 1 h 49 min
Overall bit rate mode : Variable
Overall bit rate : 25.8 Mb/s
Movie name : М: Місто шукає вбивцю / M (1931) Remux 1080p Ukr/Ger | sub Ukr/Eng [Hurtom]
Encoded date : UTC 2019-06-11 20:13:36
Writing application : v25.0.0 ('Prog Noir') 64-bit
Writing library : libebml v1.3.6 + v1.4.9

Video
ID : 1
Format : AVC
Format/Info : Advanced Video Codec
Format profile : [email protected]
Format settings, CABAC : Yes
Format settings, RefFrames : 4 frames
Codec ID : V_MPEG4/ISO/AVC
Duration : 1 h 49 min
Bit rate mode : Variable
Bit rate : 24.0 Mb/s
Maximum bit rate : 37.0 Mb/s
Width : 1 920 pixels
Height : 1 080 pixels
Display aspect ratio : 16:9
Frame rate mode : Constant
Frame rate : 23.976 (24000/1001) FPS
Color space : YUV
Chroma subsampling : 4:2:0
Bit depth : 8 bits
Scan type : Progressive
Bits/(Pixel*Frame) : 0.482
Stream size : 18.4 GiB (93%)
Title : M (1931) Remux 1080p Ukr/Ger | sub Ukr/Eng [Hurtom]
Language : Ukrainian
Default : Yes
Forced : Yes
Color range : Limited
Color primaries : BT.709
Transfer characteristics : BT.709
Matrix coefficients : BT.709

Audio #1
ID : 2
Format : AC-3
Format/Info : Audio Coding 3
Format settings, Endianness : Big
Codec ID : A_AC3
Duration : 1 h 49 min
Bit rate mode : Constant
Bit rate : 224 kb/s
Channel(s) : 1 channel
Channel positions : Front: C
Sampling rate : 48.0 kHz
Frame rate : 31.250 FPS (1536 SPF)
Bit depth : 16 bits
Compression mode : Lossy
Stream size : 176 MiB (1%)
Title : Озвучено ТО "Цікава ідея" на замовлення hurtom.com
Language : Ukrainian
Service kind : Complete Main
Default : Yes
Forced : No

Audio #2
ID : 3
Format : PCM
Codec ID : A_PCM/INT/LIT
Duration : 1 h 49 min
Bit rate mode : Constant
Bit rate : 1 152 kb/s
Sampling rate : 48.0 kHz
Frame rate : 32.000 FPS (1500 SPF)
Bit depth : 24 bits
Stream size : 904 MiB (4%)
Title : Original PCM 1.0
Language : German
Default : No
Forced : No

Audio #3
ID : 4
Format : AC-3
Format/Info : Audio Coding 3
Format settings, Endianness : Big
Codec ID : A_AC3
Duration : 1 h 49 min
Bit rate mode : Constant
Bit rate : 224 kb/s
Channel(s) : 1 channel
Channel positions : Front: C
Sampling rate : 48.0 kHz
Frame rate : 31.250 FPS (1536 SPF)
Bit depth : 16 bits
Compression mode : Lossy
Stream size : 176 MiB (1%)
Title : Original 1.0
Language : German
Service kind : Complete Main
Default : No
Forced : No

Text #1
ID : 6
Format : UTF-8
Codec ID : S_TEXT/UTF8
Codec ID/Info : UTF-8 Plain Text
Duration : 1 h 48 min
Bit rate : 78 b/s
Count of elements : 1122
Stream size : 62.5 KiB (0%)
Title : Ukr | Переклад: Abyrvalg, Alinea, w2958l, contra, V_Rednaya, Ur, Mia_ua, StanislavX, Hulk1987 LEMBERG_, KetaRaketa
Language : Ukrainian
Default : No
Forced : No

Text #2
ID : 7
Format : UTF-8
Codec ID : S_TEXT/UTF8
Codec ID/Info : UTF-8 Plain Text
Duration : 1 h 48 min
Bit rate : 47 b/s
Count of elements : 1143
Stream size : 37.8 KiB (0%)
Title : Eng
Language : English
Default : No
Forced : No

Menu
00:00:00.000 : :Else Beckmann
00:08:23.503 : :"Who is the Murderer"
00:14:06.846 : :Investigations
00:21:04.263 : :"Show me your papers"
00:29:43.115 : :Cops everywhere
00:42:25.334 : :Interfering with business
00:47:12.830 : :Hans Beckert's apartment
00:56:49.948 : :Peer Gynt Suite
00:59:14.468 : :The mark
01:06:38.661 : :Abandoned offices
01:15:46.751 : :Surrounded
01:18:27.828 : :Alarm
01:22:13.345 : :Interrogation
01:30:44.064 : :The hideout
01:34:31.082 : :Kangaroo court
Скріншоти
Джерело: &
За постери подяка п. thefir та п. somnambula.
Особиста оцінка: 10 - без зайвих вагань рекомендую всім!


Авторський реліз (завантажувати можна без реєстрації)
 Трекер:    Зареєстрований   

Завантажити / скачати фільм українською



відео для новачків



 Зареєстрований:   2019-06-12 22:39
 Розмір:   19.76 GB 
 Оцінка фільму:   10/10 (Голосів: 5)
   
nikolson1937 
Частий відвідувач


З нами з: 01.06.14
Востаннє: 02.08.20
Повідомлень: 30

2019-06-14 07:24  
ого/,які раритети пішли. Дуже дякую
patlatyj1000 
Новенький


З нами з: 13.12.12
Востаннє: 21.09.20
Повідомлень: 14

2019-06-18 14:53  
Виправте, будь ласка.
Замість: "те, що через виросла нього активність поліції," - "те, що через нього виросла активність поліції,"

MakRA 
VIP


З нами з: 11.11.18
Востаннє: 01.10.20
Повідомлень: 1120

2019-06-19 00:15  
patlatyj1000
Дякую, виправив.

Ваш часовий пояс: GMT + 2 Години

Нова тема   Відповісти