Леді Баг та Супер-Кіт / Miraculous, Tales of Ladybug and Cat Noir (Сезон 2) (2017) AVC

Нові коментарі

Нова тема   Відповісти
Автор Повідомлення
sergiyko.5 
VIP


З нами з: 25.02.16
Востаннє: 16.06.19
Повідомлень: 2327

2019-06-12 20:48  


Леді Баг та Супер-Кіт / Miraculous, Tales of Ladybug and Cat Noir (Сезон 2) (2017) AVC

Леді Баг та Супер-Кіт / Miraculous, Tales of Ladybug and Cat Noir (Сезон 2) (2017) AVC

Жанр: Пригоди, комедія, сімейний
Країна: Франція, Південна Корея, Японія
Режисер: Томас Аструк
Актори: Анук Хатбой, Бенжамін Болен, Ентоні Том

Сюжет:
Адріан і Марінет - старшокласники, майже як всі інші. При найменшій загрозі Парижу вони стають Леді Баг і Котом Нуар. Їх місія - захопити акум (темних метеликів), які перетворюють людей в супер-лиходіїв. Коли герої об'єднуються, кожен з них не знає справжньої особистості іншого. Марінет не знає, що Кот Нуар насправді Адріан - хлопчик в якого вона таємно закохана, а Адріан, чиє серце б'ється заради Леді Баг, не знає, що під маскою супер-героїні ховається мила і вітряна однокласниця.




Тривалість: 1 серія: 21:48 (цілком серій: 26 з 26)
Якість: AVC

Відео: розмір кадру: 1024 х 576 бітрейт: ~ 1 300 кб/с
Аудіо: мова: українська переклад: професійний дубльований кодек: 2.0 бітрейт: 192 кб/с
Озвучення:

Примітка: українська доріжка записана з супутникової трансляції телеканала ПлюсПлюс і синхронізована під HD відео, звук не розтягувався і не змінювався темп.
Перелік серій

01 Колекціонер
02 Королева ефіру
03 Морозник
04 Злючий ведмедик
05 Хаосистентка
06 Гігантитан
07 Контратака
08 Бефана
09 Зловій
10 Горизілла
11 Робостус
12 Сапотиси
13 Темний пугач
14 Сирена
15 Зомбіцьом
16 Капітан Хард-рок
17 Льодовик
18 Королева стилю. Битва королев. Частина перша
19 Королева Ос. Битва королев. Частина друга
20 Перетворювач
21 Анансі
22 Заклинатель
23 Піщаний хлопчик
24 Активаторка. День героїв. Частина перша
25 Маюра. День героїв. Частина друга
26 Санта Хаос
Про файл:
General
Unique ID : 193474896123748420766317586101167481423 (0x918DE8DB197B9E4DAE5EA41A5968624F)
Complete name : G:\Torrents2\MULT\MuSERIAL\Miraculous Tales of Ladybug and Cat Noir S02 \S02E01.The.Collector..
Format :
Format version : Version 2
File size : 244 MiB
Duration : 21 min 37 s
Overall bit rate : 1 576 kb/s
Encoded date : UTC 2019-05-30 09:14:37
Writing application : v7.8.0 ('River Man') 32bit built on Apr 3 2015 12:11:22
Writing library : libebml v1.3.1 + v1.4.2

Video
ID : 1
Format : AVC
Format/Info : Advanced Video Codec
Format profile : [email protected]
Format settings : CABAC / 12 Ref Frames
Format settings, CABAC : Yes
Format settings, Reference : 12 frames
Codec ID : V_MPEG4/ISO/AVC
Duration : 21 min 37 s
Bit rate : 1 353 kb/s
Width : 1 024 pixels
Height : 576 pixels
Display aspect ratio : 16:9
Frame rate mode : Constant
Frame rate : 25.000 FPS
Color space : YUV
Chroma subsampling : 4:2:0
Bit depth : 8 bits
Scan type : Progressive
Bits/(Pixel*Frame) : 0.092
Stream size : 209 MiB (86%)
Writing library : core 146 r2538 121396c
Encoding settings : cabac=1 / ref=12 / deblock=1:-1:-1 / analyse=0x3:0x133 / me=umh / subme=9 / psy=1 / psy_rd=0.40:0.00 / mixed_ref=1 / me_range=24 / chroma_me=1 / trellis=2 / 8x8dct=1 / cqm=0 / deadzone=21,11 / fast_pskip=1 / chroma_qp_offset=-2 / threads=24 / lookahead_threads=4 / sliced_threads=0 / nr=0 / decimate=1 / interlaced=0 / bluray_compat=0 / constrained_intra=0 / bframes=8 / b_pyramid=2 / b_adapt=2 / b_bias=0 / direct=1 / weightb=1 / open_gop=0 / weightp=2 / keyint=250 / keyint_min=25 / scenecut=40 / intra_refresh=0 / rc_lookahead=60 / rc=crf / mbtree=1 / crf=19.0 / qcomp=0.70 / qpmin=0 / qpmax=69 / qpstep=4 / vbv_maxrate=40000 / vbv_bufsize=50000 / crf_max=0.0 / nal_hrd=none / filler=0 / ip_ratio=1.40 / aq=1:0.60
Default : Yes
Forced : No

Audio
ID : 2
Format : AC-3
Format/Info : Audio Coding 3
Commercial name : Dolby Digital
Codec ID : A_AC3
Duration : 21 min 37 s
Bit rate mode : Constant
Bit rate : 192 kb/s
Channel(s) : 2 channels
Channel layout : L R
Sampling rate : 48.0 kHz
Frame rate : 31.250 FPS (1536 SPF)
Bit depth : 16 bits
Compression mode : Lossy
Stream size : 29.7 MiB (12%)
Service kind : Complete Main
Default : Yes
Forced : No
Скріншоти:


Запис/зведення: sergiyko


Бронзовий реліз (на рейтинг впливає 75% завантаженого)
 Трекер:    Зареєстрований   

Завантажити / скачати мультфільм українською



відео для новачків



 Зареєстрований:   2019-06-12 20:48
 Розмір:   7.08 GB 
 Оцінка мультсеріалу:   10/10 (Голосів: 4)
   
Ваш часовий пояс: GMT + 2 Години

Нова тема   Відповісти