Чемпіонат Європи-2020. Відбірковий турнір. Група B. 4-й тур. Україна - Люксембург (10.06.2019) IPTV 1080p Ukr/Int

Нові коментарі

Нова тема   Відповісти
Останній раз роздавалося sergiyko.5 (2019-06-17)
Автор Повідомлення
sergiyko.5 
VIP


З нами з: 25.02.16
Востаннє: 17.06.19
Повідомлень: 2328

2019-06-12 19:34  
Чемпіонат Європи-2020. Відбірковий турнір. Група B. 4-й тур. Україна - Люксембург (10.06.2019) IPTV 1080p Ukr/Int


Чемпіонат Європи-2020. Відбірковий турнір. Група B. 4-й тур. Україна - Люксембург (10.06.2019) IPTV 1080p Ukr/Int

Жанр: Футбол
Країна: Україна | Micто Львів
Телеканал: Футбол 3
Коментатор матчу: Віктор Вацко

Опис:
Чемпіонат Європи-2020. Відбірковий турнір. Група B. 4-й тур. Україна - Люксембург.

Якість:
Відео: кодек: розмір кадру: 1920 x 1080 бітрейт: ~ 4000 кб/с
Аудіо 1: мова: українська кодек: 2.0 бітрейт: 192 кб/с
Аудіо 2: мова: інтершум кодек: 2.0 бітрейт: 600 кб/с
Тривалість:
01:48:09
Склади

Про файл:
General
Unique ID : 316517679837554771745582161190741185269 (0xEE1F1676F633A738EBA148E7100992F5)
Complete name : G:\Torrents2\SPORT\Україна-Люксембург.10-06-2019.1080p.IPTV.Ukr.Int.
Format :
Format version : Version 4
File size : 3.60 GiB
Duration : 1 h 48 min
Overall bit rate mode : Variable
Overall bit rate : 4 762 kb/s
Movie name : Україна-Люксембург.10-06-2019.1080p.IPTV.Ukr.Int by sergiyko
Encoded date : UTC 2019-06-12 16:17:09
Writing application : v34.0.0 ('Sight and Seen') 64-bit
Writing library : libebml v1.3.7 + v1.5.0

Video
ID : 1
Format : AVC
Format/Info : Advanced Video Codec
Format profile : [email protected]
Format settings : CABAC / 4 Ref Frames
Format settings, CABAC : Yes
Format settings, Reference fra : 4 frames
Codec ID : V_MPEG4/ISO/AVC
Duration : 1 h 48 min
Bit rate mode : Variable
Bit rate : 4 061 kb/s
Maximum bit rate : 4 500 kb/s
Width : 1 920 pixels
Height : 1 080 pixels
Display aspect ratio : 16:9
Frame rate mode : Constant
Frame rate : 25.000 FPS
Color space : YUV
Chroma subsampling : 4:2:0
Bit depth : 8 bits
Scan type : Progressive
Bits/(Pixel*Frame) : 0.078
Stream size : 3.07 GiB (85%)
Language : Ukrainian
Default : Yes
Forced : No

Audio #1
ID : 2
Format : AC-3
Format/Info : Audio Coding 3
Commercial name : Dolby Digital
Codec ID : A_AC3
Duration : 1 h 48 min
Bit rate mode : Constant
Bit rate : 192 kb/s
Channel(s) : 2 channels
Channel layout : L R
Sampling rate : 48.0 kHz
Frame rate : 31.250 FPS (1536 SPF)
Bit depth : 16 bits
Compression mode : Lossy
Delay relative to video : -200 ms
Stream size : 149 MiB (4%)
Title : Віктор Вацко
Language : Ukrainian
Service kind : Complete Main
Default : Yes
Forced : Yes

Audio #2
ID : 3
Format :
Format/Info : Free Lossless Audio Codec
Codec ID : A_FLAC
Duration : 1 h 48 min
Bit rate mode : Variable
Bit rate : 507 kb/s
Channel(s) : 2 channels
Channel layout : L R
Sampling rate : 48.0 kHz
Frame rate : 11.719 FPS (4096 SPF)
Bit depth : 16 bits
Compression mode : Lossless
Delay relative to video : -200 ms
Stream size : 392 MiB (11%)
Title : Інтершум
Writing library : libFLAC 1.3.2 (UTC 2017-01-01)
Default : No
Forced : No
Скріншоти:


Золотий реліз (завантажене не впливає на рейтинг)
 Трекер:    Зареєстрований   

Завантажити / скачати торрент



відео для новачків



 Зареєстрований:   2019-06-12 22:09
 Розмір:   3.63 GB 
 Оцінка:   10/10 (Голосів: 5)
   
DVD 
Новенький


З нами з: 26.08.08
Востаннє: 13.06.19
Повідомлень: 16

2019-06-13 12:22  
Народ, подивіться цей матч з інтершумом! Спеціально записали його нормально, щоб передати атмосферу цього матчу. Це було просто неперевершено! Релізеру, окрема подяка, що не полінувався та вмонтував інтершум!
Ваш часовий пояс: GMT + 2 Години

Нова тема   Відповісти