Воїн (Сезон 1, Серії 1-2) / Warrior (Season 1, Episodes 1-2) (2019) 720p Eng | sub Ukr

Нові коментарі

Нова тема   Відповісти
Автор Повідомлення
Chupacabr007 
Частий відвідувач


З нами з: 07.07.15
Востаннє: 16.06.19
Повідомлень: 49

2019-06-12 12:15  
Воїн (Сезон 1, Серії 1-2) / Warrior (Season 1, Episodes 1-2) (2019) 720p Eng | sub Ukr

Воїн (Сезон 1, Серії 1-2) / Warrior (Season 1, Episodes 1-2) (2019) 720p Eng | sub Ukr


Жанр: бойовик, драма, історичний
Країна: США



Кінокомпанія: Bruce Lee Entertainment, Cinemax, Perfect Storm Entertainment, Tropper / Schickler Productions
Режисер: Лоні Перістер, Лін Одінг, Девід Петрарка, Асаф Бернштейн
Актори: Ендрю Коджі, Джейсон Тобін, Олівія Ченг, Кіран Бев, Річ Тінг, Раян Крюгер

Сюжет:
Серіал заснований на оригінальній ідеї Брюса Лі. У 1890-х роках місто Сан-Франциско страждало від корупції і мафії. У китайському кварталі Сан-Франциско міжусобні війни досягли особливого розмаху. У цей неспокійний час в місто з Китаю прибуває молодий майстер східних єдиноборств А Сам. Чоловік тут же виявляється втягнутим в криваві розбірки між двома небезпечними угрупованнями в Чайнатауні. А Сам піддає себе смертельній небезпеці, після того як план помсти, який він готував не один рік, стає відомий його ворогам.


Тривалість: ~ 01:00:00
Перелік серій
01.The Itchy Onion
02.There's No China in the Bible
Якість: 720p
Відео:
кодек:
розмір кадру: 1280 х 720
бітрейт: ~ 2 400 кб/с

Аудіо:
мова: англійська
переклад: оригінал
кодек: E- 5.1
бітрейт: 640 кб/с

Субтитри:
мова: українська
тип: програмні (м'які)
формат: *.srt
переклад: [SubAutumn]
Скріншоти





Info
General
Complete name : D:\SubAutumn\Warrior (Season 1)\Warrior.2019.S01E01.The.Itchy.Onion.
Format :
Format version : Version 4 / Version 2
File size : 1.33 GiB
Duration : 1h 0mn
Overall bit rate : 3 130 Kbps
Movie name : Warrior.2019.S01E01.The.Itchy.Onion
Encoded date : UTC 2019-06-12 08:26:48
Writing application : v6.5.0 ('Isn't she lovely') built on Oct 20 2013 12:50:05
Writing library : libebml v1.3.0 + v1.4.1

Video
ID : 1
Format : AVC
Format/Info : Advanced Video Codec
Format profile : [email protected]
Format settings, CABAC : Yes
Format settings, ReFrames : 4 frames
Codec ID : V_MPEG4/ISO/AVC
Duration : 1h 0mn
Bit rate mode : Constant
Bit rate : 2 428 Kbps
Nominal bit rate : 6 000 Kbps
Width : 1 280 pixels
Height : 720 pixels
Display aspect ratio : 16:9
Frame rate mode : Constant
Frame rate : 23.976 fps
Color space : YUV
Chroma subsampling : 4:2:0
Bit depth : 8 bits
Scan type : Progressive
Bits/(Pixel*Frame) : 0.110
Stream size : 1.03 GiB (78%)
Title : Original
Language : English
Default : Yes
Forced : No
Color range : Limited
Color primaries : BT.709
Transfer characteristics : BT.709
Matrix coefficients : BT.709

Audio
ID : 2
Format : E-AC-3
Format/Info : Audio Coding 3
Format settings, Endianness : Big
Codec ID : A_EAC3
Duration : 1h 0mn
Bit rate mode : Constant
Bit rate : 640 Kbps
Channel(s) : 6 channels
Channel positions : Front: L C R, Side: L R, LFE
Sampling rate : 48.0 KHz
Compression mode : Lossy
Delay relative to video : 20ms
Stream size : 279 MiB (20%)
Title : Original
Language : English
Default : No
Forced : No

Text
ID : 3
Format : UTF-8
Codec ID : S_TEXT/UTF8
Codec ID/Info : UTF-8 Plain Text
Title : Warrior.2019.S01E01.The.Itchy.Onion
Language : Ukrainian
Default : Yes
Forced : No
Джерело:


Золотий реліз (завантажене не впливає на рейтинг)
 Трекер:    Зареєстрований   

Завантажити / скачати серіал українською



відео для новачків



 Зареєстрований:   2019-06-16 12:08
 Розмір:   2.18 GB 
 Оцінка серіалу:   10/10 (Голосів: 6)
   
adamantick 
Новенький


З нами з: 07.02.12
Востаннє: 16.06.19
Повідомлень: 13

2019-06-12 21:55  
класний серіал!! , запізно перевели на українську)
Едм 
VIP


З нами з: 18.05.08
Востаннє: 16.06.19
Повідомлень: 1240

2019-06-14 01:45  
adamantick
Конкретизуйте до кого звертаєтесь, а то кожен хто перекладає відноситиме на свій рахунок.

Chupacabr007 
Частий відвідувач


З нами з: 07.07.15
Востаннє: 16.06.19
Повідомлень: 49

2019-06-16 12:11  
Додано 2 серію
Ваш часовий пояс: GMT + 2 Години

Нова тема   Відповісти