Воїн (Сезон 1) / Warrior (Season 1) (2019) 720p Eng | sub Ukr

Нові коментарі

Нова тема   Відповісти
Автор Повідомлення
Chupacabr007 
Свій


З нами з: 07.07.15
Востаннє: 19.01.20
Повідомлень: 86

2019-06-12 11:15  
Воїн (Сезон 1) / Warrior (Season 1) (2019) 720p Eng | sub Ukr

Воїн (Сезон 1) / Warrior (Season 1) (2019) 720p Eng | sub Ukr
Альтернативний постер
Оригінальний постер

Воїн (Сезон 1) / Warrior (Season 1) (2019) 720p Eng | sub Ukr


Жанр: бойовик, драма, історичний
Країна: США



Кінокомпанія: Bruce Lee Entertainment, Cinemax, Perfect Storm Entertainment, Tropper / Schickler Productions
Режисер: Лоні Перістер, Лін Одінг, Девід Петрарка, Асаф Бернштейн
Актори: Ендрю Коджі, Джейсон Тобін, Олівія Ченг, Кіран Бев, Річ Тінг, Раян Крюгер

Сюжет:
Серіал заснований на оригінальній ідеї Брюса Лі. У 1890-х роках місто Сан-Франциско страждало від корупції і мафії. У китайському кварталі Сан-Франциско міжусобні війни досягли особливого розмаху. У цей неспокійний час в місто з Китаю прибуває молодий майстер східних єдиноборств А Сам. Чоловік тут же виявляється втягнутим в криваві розбірки між двома небезпечними угрупованнями в Чайнатауні. А Сам піддає себе смертельній небезпеці, після того як план помсти, який він готував не один рік, стає відомий його ворогам.


Тривалість: ~ 01:00:00
Перелік серій
01.The Itchy Onion
02.There's No China in the Bible
03.John Chinaman
04.The White Mountain
05.The Blood and the Sh*t
06.Chewed Up, Spit Out, and Stepped On
07.The Tiger and the Fox
08.They Don't Pay Us Enough to Think
09.Chinese Boxing
10.If You're Going to Bow, Bow Low
Якість: 720p
Відео:
кодек:
розмір кадру: 1280 х 720
бітрейт: ~ 2 400 кб/с

Аудіо:
мова: англійська
переклад: оригінал
кодек: E- 5.1
бітрейт: 640 кб/с

Субтитри:
мова: українська
тип: програмні (м'які)
формат: *.srt
переклад: [SubAutumn]
Скріншоти





Info
General
Complete name : D:\SubAutumn\Warrior (Season 1)\Warrior.2019.S01E01.The.Itchy.Onion.
Format :
Format version : Version 4 / Version 2
File size : 1.33 GiB
Duration : 1h 0mn
Overall bit rate : 3 130 Kbps
Movie name : Warrior.2019.S01E01.The.Itchy.Onion
Encoded date : UTC 2019-06-12 08:26:48
Writing application : v6.5.0 ('Isn't she lovely') built on Oct 20 2013 12:50:05
Writing library : libebml v1.3.0 + v1.4.1

Video
ID : 1
Format : AVC
Format/Info : Advanced Video Codec
Format profile : [email protected]
Format settings, CABAC : Yes
Format settings, ReFrames : 4 frames
Codec ID : V_MPEG4/ISO/AVC
Duration : 1h 0mn
Bit rate mode : Constant
Bit rate : 2 428 Kbps
Nominal bit rate : 6 000 Kbps
Width : 1 280 pixels
Height : 720 pixels
Display aspect ratio : 16:9
Frame rate mode : Constant
Frame rate : 23.976 fps
Color space : YUV
Chroma subsampling : 4:2:0
Bit depth : 8 bits
Scan type : Progressive
Bits/(Pixel*Frame) : 0.110
Stream size : 1.03 GiB (78%)
Title : Original
Language : English
Default : Yes
Forced : No
Color range : Limited
Color primaries : BT.709
Transfer characteristics : BT.709
Matrix coefficients : BT.709

Audio
ID : 2
Format : E-AC-3
Format/Info : Audio Coding 3
Format settings, Endianness : Big
Codec ID : A_EAC3
Duration : 1h 0mn
Bit rate mode : Constant
Bit rate : 640 Kbps
Channel(s) : 6 channels
Channel positions : Front: L C R, Side: L R, LFE
Sampling rate : 48.0 KHz
Compression mode : Lossy
Delay relative to video : 20ms
Stream size : 279 MiB (20%)
Title : Original
Language : English
Default : No
Forced : No

Text
ID : 3
Format : UTF-8
Codec ID : S_TEXT/UTF8
Codec ID/Info : UTF-8 Plain Text
Title : Warrior.2019.S01E01.The.Itchy.Onion
Language : Ukrainian
Default : Yes
Forced : No
Джерело:
Українізація постерів: Otaku-First



Золотий реліз (завантажене не впливає на рейтинг)
 Трекер:    Зареєстрований   

Завантажити / скачати серіал українською



відео для новачків



 Зареєстрований:   2019-08-09 11:05
 Розмір:   9.75 GB 
 Оцінка серіалу:   10/10 (Голосів: 22)
   
adamantick 
Новенький


З нами з: 06.02.12
Востаннє: 16.01.20
Повідомлень: 15

2019-06-12 20:55  
класний серіал!! , запізно перевели на українську)
Едм 
VIP


З нами з: 18.05.08
Востаннє: 19.01.20
Повідомлень: 1246

2019-06-14 00:45  
adamantick
Конкретизуйте до кого звертаєтесь, а то кожен хто перекладає відноситиме на свій рахунок.

Chupacabr007 
Свій


З нами з: 07.07.15
Востаннє: 19.01.20
Повідомлень: 86

2019-06-16 11:11  
Додано 2 серію
Chupacabr007 
Свій


З нами з: 07.07.15
Востаннє: 19.01.20
Повідомлень: 86

2019-06-21 10:49  
Додано 3 серію
small02 
Новенький


З нами з: 03.11.10
Востаннє: 18.01.20
Повідомлень: 1

2019-06-23 20:49  
Дякую, серіал дуже цікавий виявися.
Chupacabr007 
Свій


З нами з: 07.07.15
Востаннє: 19.01.20
Повідомлень: 86

2019-06-28 10:59  
Додано 4 серію
Chupacabr007 
Свій


З нами з: 07.07.15
Востаннє: 19.01.20
Повідомлень: 86

2019-07-05 10:28  
Додано 5 серію
gashyk 
Свій


З нами з: 19.03.10
Востаннє: 16.01.20
Повідомлень: 114

2019-07-05 18:13  
adamantick написано:
запізно перевели на українську)

Три помилки в одному твердженні:
-краще пізно, ніж взагалі;
-не перевели, а переклали;
- не "на українську", а вкраїнською чи українською.
За українські субтитри вагома подяка. Люблю дивитись в оригіналі з укр. сабами.

кокошнік 
Попереджень: 1
Попереджень: 1 


З нами з: 09.06.15
Востаннє: 20.01.20
Повідомлень: 2139

2019-07-05 21:05  
gashyk написано:
-краще пізно, ніж взагалі;

https://uk.wikipedia.org/wiki/ Краще_пізно,_ніж_ніколи

tpolit 
VIP


З нами з: 10.01.15
Востаннє: 20.01.20
Повідомлень: 531

2019-07-06 10:27  
adamantick, ти все нормально написав, просто gashyk якийсь психований попався - пише відверту маячню і вважає її правильною. З трьох виправлень в двох припустився помилок Wide grin
ValicV 
Свій


З нами з: 18.01.10
Востаннє: 20.01.20
Повідомлень: 137

2019-07-10 09:48  
Дякую за вашу працю.
А коли буде решта епізодів?

SubAutumn 
Новенький


З нами з: 28.06.19
Востаннє: 19.01.20
Повідомлень: 2

2019-07-10 13:53  
ValicV
Цитата:
А коли буде решта епізодів?

Серії виходять раз на тиждень, шоста має бути завтра.

ValicV 
Свій


З нами з: 18.01.10
Востаннє: 20.01.20
Повідомлень: 137

2019-07-10 17:39  
Ок, зрозумів.
Дякую

Chupacabr007 
Свій


З нами з: 07.07.15
Востаннє: 19.01.20
Повідомлень: 86

2019-07-11 11:42  
Додано 6 серію
Chupacabr007 
Свій


З нами з: 07.07.15
Востаннє: 19.01.20
Повідомлень: 86

2019-07-21 15:26  
Додано 7 серію
Chupacabr007 
Свій


З нами з: 07.07.15
Востаннє: 19.01.20
Повідомлень: 86

2019-07-28 16:12  
Додано 8 серію
Chupacabr007 
Свій


З нами з: 07.07.15
Востаннє: 19.01.20
Повідомлень: 86

2019-08-02 11:15  
Додано 9 серію
Chupacabr007 
Свій


З нами з: 07.07.15
Востаннє: 19.01.20
Повідомлень: 86

2019-08-09 11:10  
Додано 10 серію
Повний сезон!

behemot86 
Свій


З нами з: 04.10.10
Востаннє: 19.01.20
Повідомлень: 58

2019-10-16 13:10  
Дякую Вам! Сьогодні завантажую. Можу постояти на роздачі 3 дні.
Ваш часовий пояс: GMT + 2 Години

Нова тема   Відповісти