50 перших поцілунків / 50 First Dates (2004) 720p 2xUkr/Eng | Sub Eng

Нові коментарі

Нова тема   Відповісти
Автор Повідомлення
Anonymous 







2019-06-12 06:08  
50 перших поцілунків / 50 First Dates (2004) 720p 2xUkr/Eng | Sub Eng

50 перших поцілунків / 50 First Dates (2004) 720p 2xUkr/Eng | Sub Eng
Альтернативний постер:



Жанр: мелодрама, комедія
Країна: США



Кінокомпанія: Columbia Pictures, Anonimus Content, Happy Madison
Режисер: Пітер Сігал
Актори: Адам Сендлер, Дрю Беррімор, Роб Шнайдер, Шон Остн, Емі Хілл, Ден Ейкройд, Блейк Кларк, Помайкай Браун

Сюжет:
Генрі Рот закохується в чарівну Люсі. Незважаючи на невеликі перешкоди, вже до вечора наполегливому Ромео вдається домогтися взаємності красуні. Молоді люди щасливі й упевнені, що їхня любов триватиме вічно. На жаль, через наслідки автомобільної аварії, дівчина вранці не пам'ятає нічого з того, що сталося напередодні. Незважаючи на це, Генрі не має наміру здаватися і збирається боротися за свою любов, навіть якщо заради цього йому і доведеться закохувати в себе Люсі щодня!


Тривалість: 01:39:01
Якість: 720p
Відео:
кодек:
розмір кадру: 1280х534
бітрейт: 5669 кб/с

Аудіо # 1:
мова: українська
переклад: багатоголосий закадровий
кодек: 2.0
бітрейт: 192 кб/с

Аудіо # 2:
мова: українська
переклад: багатоголосий закадровий ,
кодек: 2.0
бітрейт: 192 кб/с

Аудіо # 3:
мова: англійська
переклад: оригінал
кодек: 5.1
бітрейт: 640 кб/с

Аудіо # 4:
мова: англійська [коментарі]
переклад: оригінал
кодек: 2.0
бітрейт: 192 кб/с

Субтитри:
мова: англійська
тип: програмні (м'які)
формат: *.srt
Info
General
Unique ID : 173354650707682382541271125362820426284 (0x826AE42AE790DD9E96B531ADCF96AA2C)
Format :
Format version : Version 4
File size : 4.76 GiB
Duration : 1 h 39 min
Overall bit rate : 6 883 kb/s
Movie name : 50 First Dates (2004)
Encoded date : UTC 2019-06-12 02:59:33
Writing application : v6.1.0 ('Old Devil') built on Mar 4 2013 09:10:42
Writing library : libebml v1.3.0 + v1.4.0

Video
ID : 1
Format : AVC
Format/Info : Advanced Video Codec
Format profile : [email protected]
Format settings : CABAC / 6 Ref Frames
Format settings, CABAC : Yes
Format settings, RefFrames : 6 frames
Codec ID : V_MPEG4/ISO/AVC
Duration : 1 h 39 min
Bit rate : 5 669 kb/s
Width : 1 280 pixels
Height : 534 pixels
Display aspect ratio : 2.40:1
Frame rate mode : Constant
Frame rate : 23.976 (24000/1001) FPS
Color space : YUV
Chroma subsampling : 4:2:0
Bit depth : 8 bits
Scan type : Progressive
Bits/(Pixel*Frame) : 0.346
Stream size : 3.83 GiB (80%)
Title : 50 First Dates (2004)
Writing library : core 110 r1820 fdcf2ae
Encoding settings : cabac=1 / ref=6 / deblock=1:-3:-3 / analyse=0x3:0x113 / me=umh / subme=10 / psy=1 / psy_rd=1.00:0.00 / mixed_ref=1 / me_range=32 / chroma_me=1 / trellis=2 / 8x8dct=1 / cqm=0 / deadzone=21,11 / fast_pskip=0 / chroma_qp_offset=-2 / threads=6 / sliced_threads=0 / nr=0 / decimate=1 / interlaced=0 / constrained_intra=0 / bframes=7 / b_pyramid=2 / b_adapt=2 / b_bias=0 / direct=3 / weightb=1 / open_gop=0 / weightp=2 / keyint=250 / keyint_min=23 / scenecut=40 / intra_refresh=0 / rc=2pass / mbtree=0 / bitrate=5669 / ratetol=1.0 / qcomp=0.60 / qpmin=10 / qpmax=51 / qpstep=4 / cplxblur=20.0 / qblur=0.5 / ip_ratio=1.40 / pb_ratio=1.30 / aq=1:0.80
Language : English
Default : Yes
Forced : No

Audio #1
ID : 2
Format : AC-3
Format/Info : Audio Coding 3
Commercial name : Dolby Digital
Codec ID : A_AC3
Duration : 1 h 39 min
Bit rate mode : Constant
Bit rate : 192 kb/s
Channel(s) : 2 channels
Channel layout : L R
Sampling rate : 48.0 kHz
Frame rate : 31.250 FPS (1536 SPF)
Bit depth : 16 bits
Compression mode : Lossy
Stream size : 136 MiB (3%)
Title : UKR (1+1)
Language : Ukrainian
Service kind : Complete Main
Default : Yes
Forced : Yes

Audio #2
ID : 3
Format : AC-3
Format/Info : Audio Coding 3
Commercial name : Dolby Digital
Codec ID : A_AC3
Duration : 1 h 39 min
Bit rate mode : Constant
Bit rate : 192 kb/s
Channel(s) : 2 channels
Channel layout : L R
Sampling rate : 48.0 kHz
Frame rate : 31.250 FPS (1536 SPF)
Bit depth : 16 bits
Compression mode : Lossy
Stream size : 136 MiB (3%)
Title : UKR (ТРК "Україна", Новий)
Language : Ukrainian
Service kind : Complete Main
Default : No
Forced : No

Audio #3
ID : 4
Format : AC-3
Format/Info : Audio Coding 3
Commercial name : Dolby Digital
Codec ID : A_AC3
Duration : 1 h 39 min
Bit rate mode : Constant
Bit rate : 640 kb/s
Channel(s) : 6 channels
Channel layout : L R C LFE Ls Rs
Sampling rate : 48.0 kHz
Frame rate : 31.250 FPS (1536 SPF)
Bit depth : 16 bits
Compression mode : Lossy
Stream size : 453 MiB (9%)
Title : ENG
Language : English
Service kind : Complete Main
Default : No
Forced : No

Audio #4
ID : 5
Format : AC-3
Format/Info : Audio Coding 3
Commercial name : Dolby Digital
Codec ID : A_AC3
Duration : 1 h 39 min
Bit rate mode : Constant
Bit rate : 192 kb/s
Channel(s) : 2 channels
Channel layout : L R
Sampling rate : 48.0 kHz
Frame rate : 31.250 FPS (1536 SPF)
Bit depth : 16 bits
Compression mode : Lossy
Stream size : 136 MiB (3%)
Title : Commentary
Language : English
Service kind : Complete Main
Default : No
Forced : No

Text
ID : 6
Format : UTF-8
Codec ID : S_TEXT/UTF8
Codec ID/Info : UTF-8 Plain Text
Language : English
Default : No
Forced : No

Menu
00:00:00.000 : en:00:00:00.000
00:05:27.244 : en:00:05:27.244
00:11:36.946 : en:00:11:36.946
00:21:21.280 : en:00:21:21.280
00:24:40.104 : en:00:24:40.104
00:31:34.226 : en:00:31:34.226
00:34:23.061 : en:00:34:23.061
00:40:57.080 : en:00:40:57.080
00:46:19.318 : en:00:46:19.318
00:51:15.739 : en:00:51:15.739
00:56:09.533 : en:00:56:09.533
01:03:39.816 : en:01:03:39.816
01:08:50.501 : en:01:08:50.501
01:13:59.560 : en:01:13:59.560
01:26:55.627 : en:01:26:55.627
01:28:35.936 : en:01:28:35.936
Скріншоти







За українські доріжки дякую п.: Arsenfpu, DеLight, sando7, TPEM, Bohdan237
За українські постери подяка п. TPEM, п.mrgalser
Особиста подяка пану denixx за надану матеріальну допомогу на підтримку цього і майбутніх релізів.
Джерело:


Срібний реліз (на рейтинг впливає 50% завантаженого)
 Трекер:    Зареєстрований   

Завантажити / скачати фільм українською



відео для новачків



 Зареєстрований:   2019-06-12 06:08
 Розмір:   4.76 GB 
 Оцінка фільму:   10/10 (Голосів: 4)
   
Інші релізи
Ваш часовий пояс: GMT + 2 Години

Нова тема   Відповісти