Стокгольмський синдром / Stockholm (2018) 1080p Eng | sub Ukr/Eng

Нові коментарі

Нова тема   Відповісти
Автор Повідомлення
ihorpotsiluiko 
Новенький


З нами з: 30.07.18
Востаннє: 20.07.19
Повідомлень: 2

2019-06-11 12:58  
Стокгольмський синдром / Stockholm (2018) 1080p Eng | sub Ukr/Eng

Стокгольмський синдром / Stockholm (2018) 1080p Eng | sub Ukr/Eng


Жанр: комедія, драма, кримінал
Країна: Канада, США



Кінокомпанія: Blumhouse Productions, Darius Films
Режисер: Роберт Будро
Актори: Нумі Рапас, Ітан Хоук, Марк Стронг, Крістофер Хейердал, Торбьорн Харр, Бі Сантос, Марк Рендалл

Сюжет:
Це неймовірна, абсурдна, але правдива історія. У 1973 році у Стокгольмі озброєний чоловік Ларс Ністром вирішив пограбувати банк. Він також протримав шість днів відвідувачів і працівників банку в заручниках, щоб його друга Гуннара випустили із в'язниці. Поліція довго намагалася домовитися із Ларсом, але все йде в безодню, коли йому відмовляють виїхати із заручниками на машині. Поки переговори тривають годинами, днями чоловік постійно метається між погрозами людям і спробами зробити все можливе, щоб їм було комфортно. У заручників з'явилося досить дивне ставлення до Ларса, якась прихильність. Так народився "стокгольмський синдром".


Тривалість: 01:31:56
Якість:
Відео:
кодек:
розмір кадру: 1920 x 800
бітрейт: 8887 кб/с

Аудіо:
мова: англійська
переклад: оригінал
кодек: E- 5.1
бітрейт: 640 кб/с

Субтитри # 1:
мова: українська
тип: програмні (м'які)
формат: *.srt
переклад: авторський від Hardyckson

Субтитри # 2:
мова: англійська (SDH)
тип: програмні (м'які)
формат: *.srt
Info
Код:

Complete name                  : Stockholm 2018 1080p [Eng] sub Ukr.
Format                         :
Format version                 : Version 4
File size                      : 5.71 GiB
Duration                       : 1 h 31 min
Overall bit rate               : 8 887 kb/s
Movie name                     : Stockholm 2018
Encoded date                   : UTC 2019-06-10 21:24:13
Writing application            : v34.0.0 ('Sight and Seen') 64-bit
Writing library                : libebml v1.3.7 + v1.5.0

Video
ID                             : 2
Format                         : AVC
Format/Info                    : Advanced Video Codec
Format profile                 : [email protected]
Format settings                : CABAC / 4 Ref Frames
Format settings, CABAC         : Yes
Format settings, ReFrames      : 4 frames
Codec ID                       : V_MPEG4/ISO/AVC
Duration                       : 1 h 31 min
Bit rate mode                  : Constant
Bit rate                       : 8 244 kb/s
Nominal bit rate               : 10 000 kb/s
Width                          : 1 920 pixels
Height                         : 800 pixels
Display aspect ratio           : 2.40:1
Frame rate mode                : Constant
Frame rate                     : 23.976 (24000/1001) FPS
Color space                    : YUV
Chroma subsampling             : 4:2:0
Bit depth                      : 8 bits
Scan type                      : Progressive
Bits/(Pixel*Frame)             : 0.224
Stream size                    : 5.29 GiB (93%)
Language                       : English
Default                        : Yes
Forced                         : No
Color range                    : Limited
Color primaries                : BT.709
Transfer characteristics       : BT.709
Matrix coefficients            : BT.709

Audio
ID                             : 3
Format                         : E-AC-3
Format/Info                    : Enhanced AC-3
Commercial name                : Dolby Digital Plus
Codec ID                       : A_EAC3
Duration                       : 1 h 31 min
Bit rate mode                  : Constant
Bit rate                       : 640 kb/s
Channel(s)                     : 6 channels
Channel layout                 : L R C LFE Ls Rs
Sampling rate                  : 48.0 kHz
Frame rate                     : 31.250 FPS (1536 SPF)
Compression mode               : Lossy
Stream size                    : 421 MiB (7%)
Title                          : Original
Language                       : English
Service kind                   : Complete Main
Default                        : No
Forced                         : No

Text #1
ID                             : 1
Format                         : UTF-8
Codec ID                       : S_TEXT/UTF8
Codec ID/Info                  : UTF-8 Plain Text
Duration                       : 1 h 25 min
Bit rate                       : 112 b/s
Count of elements              : 1651
Stream size                    : 70.8 KiB (0%)
Title                          : українська
Language                       : Ukrainian
Default                        : Yes
Forced                         : No

Text #2
ID                             : 4
Format                         : UTF-8
Codec ID                       : S_TEXT/UTF8
Codec ID/Info                  : UTF-8 Plain Text
Duration                       : 1 h 28 min
Bit rate                       : 83 b/s
Count of elements              : 1964
Stream size                    : 53.9 KiB (0%)
Title                          : SDH
Language                       : English
Default                        : No
Forced                         : No
Скріншоти



Джерело:
Особиста оцінка: 10 - без зайвих вагань рекомендую всім!


Золотий реліз (завантажене не впливає на рейтинг)
 Трекер:    Зареєстрований   

Завантажити / скачати фільм українською



відео для новачків



 Зареєстрований:   2019-06-11 12:58
 Розмір:   5.71 GB 
 Оцінка фільму:   9.8/10 (Голосів: 9)
   
igor911 
Модератор відео


З нами з: 18.01.08
Востаннє: 20.07.19
Повідомлень: 12933

2019-06-11 13:35  
ihorpotsiluiko, треба додати звіт Info.
-ПАН КОЦЬКИЙ- 
Свій


З нами з: 27.11.17
Востаннє: 19.07.19
Повідомлень: 72

2019-06-23 18:57  
Сподіваюся український дубляж буде ???!!!
nosferatumes 
Свій


З нами з: 12.10.16
Востаннє: 12.07.19
Повідомлень: 66

2019-07-02 15:48  
Переглянув, дійсно абсурдна історія, але, мабуть, як і вся наша буденність Happy
bohdk 
Відео Гуртом - субтитрування
Відео Гуртом - субтитрування


З нами з: 23.10.09
Востаннє: 19.07.19
Повідомлень: 677

2019-07-14 23:52  
ihorpotsiluiko
Передайте Hardyckson, нехай доведе саби до пуття. Через репліку граматика з орфо накульгують. Це як мінімум.

Ваш часовий пояс: GMT + 2 Години

Нова тема   Відповісти