Для того, щоб зникнути (Послідовне зникнення, In Order of Disappearance) / Kraftidioten (2014) AVC Ukr/Nor | Sub Ukr/Eng/Nor

Нові коментарі

Нова тема   Відповісти
Автор Повідомлення
Anonymous 







2019-06-10 18:26  
Для того, щоб зникнути / Послідовне зникнення / In Order of Disappearance / Kraftidioten (2014) AVC Ukr/Nor | Sub Ukr/Eng/Nor

Альтернативні постери:















Жанр: трилер, кримінальний, драма
Країна: Норвегія, Данія, Швеція



Кінокомпанія: Paradox, Paradox Film 2, Det Danske Filminstitut, Danmarks Radio, Film i Väst, Fonds Eurimages du Conseil de l'Europe, MEDIA Programme of the European Union, Nordisk Film- & TV-Fond, Norwegian Film Institute, Storyline NOR, Svenska Filminstitutet (SFI), Zentropa Entertainments 5, Zentropa International Sweden
Режисер: Ганс Петтер Моланд / Hans Petter Moland
Актори: Стеллан Скашґорд / Stellan Skarsgård, Бірджітт Гйорт Соренсен / Birgitte Hjort Sørensen, Крістофер Гівйю / Kristofer Hivju, Тобіас Сантельманн / Tobias Santelmann, Якоб Офтебро / Jakob Oftebro, Бруно Ґанц / Bruno Ganz, Пал Сверре Гаґен / Pål Sverre Hagen, Андерс Басмо Крістіансен / Anders Baasmo Christiansen, Серґей Тріфунович / Sergej Trifunovic, Петер Андерссон / Peter Andersson, Давід Сакураі / David Sakurai, Стіґ Генрік Гофф / Stig Henrik Hoff, Ґоран Навоєч / Goran Navojec, Атле Антонсен / Atle Antonsen, Ян Ґюннар Ройсе / Jan Gunnar Røise

Сюжет:
У головного героя Нільса (Стеллан Скарсґард) страшне горе: йому повідомили, що його син помер від передозування наркотиків. Він не може в це повірити і раптом колишній колега сина по роботі повідомляє йому, що того помилково вбили наркоторговці. За будь-яку ціну Нільс вирішує дійти від дрібного дилера кокаїну до наркобарона і покарати всіх за смерть сина.
Офіційний трейлер:


Рейтинг MPAA: R - особам до 17 років обов'язкова присутність батьків або дорослого опікуна
Вікова категорія: 16+

Тривалість: 01:56:28
Якість: AVC
Відео:
кодек:
розмір кадру: 1092 х 464
бітрейт: 1976 кб/с

Аудіо # 1:
мова: українська
переклад: одноголосий закадровий
кодек: 5.1
бітрейт: 448 кб/с
примітка: озвучено SATKUR за субтитрами ivan vyrvyvuho

Аудіо # 2:
мова: норвезька
переклад: оригінал
кодек: 5.1
бітрейт: 448 кб/с

Субтитри # 1:
мова: українська
тип: програмні (м'які)
формат: *.srt
переклад: ivan vyrvyvuho

Субтитри # 2:
мова: англійська
тип: програмні (м'які)
формат: *.srt

Субтитри # 3:
мова: норвезька
тип: програмні (м'які)
формат: *.srt

Збережено оригінальні розділи, як на Blu-ray
Info:
Код:

Complete name               : Kraftidioten (In Order of Disappearance) (2014) [Ukr,Nor sub.Ukr,Eng,Nor] AVC [Hurtom].
Format                      :
Format version              : Version 4
File size                   : 2.34 GiB
Duration                    : 1 h 56 min
Overall bit rate            : 2 874 kb/s
Movie name                  : Для того, щоб зникнути / Послідовне зникнення / In Order of Disappearance / Kraftidioten (2014) [Ukr,Nor sub.Ukr,Eng,Nor] AVC [Hurtom]
Encoded date                : UTC 2019-06-10 16:01:09
Writing application         : v34.0.0 ('Sight and Seen') 64-bit
Writing library             : libebml v1.3.7 + v1.5.0
Cover                       : Yes
Attachments                 : cover.jpg

Video
ID                          : 1
Format                      : AVC
Format/Info                 : Advanced Video Codec
Format profile              : [email protected]
Format settings             : CABAC / 10 Ref Frames
Format settings, CABAC      : Yes
Format settings, Reference  : 10 frames
Codec ID                    : V_MPEG4/ISO/AVC
Duration                    : 1 h 56 min
Bit rate                    : 1 976 kb/s
Width                       : 1 092 pixels
Height                      : 464 pixels
Display aspect ratio        : 2.35:1
Frame rate mode             : Constant
Frame rate                  : 24.000 FPS
Color space                 : YUV
Chroma subsampling          : 4:2:0
Bit depth                   : 8 bits
Scan type                   : Progressive
Bits/(Pixel*Frame)          : 0.162
Stream size                 : 1.61 GiB (69%)
Title                       : Для того, щоб зникнути / Послідовне зникнення / In Order of Disappearance / Kraftidioten (2014) AVC [potroks]
Writing library             : core 146 r2538 121396c
Encoding settings           : cabac=1 / ref=10 / deblock=1:-2:-2 / analyse=0x3:0x113 / me=umh / subme=11 / psy=1 / psy_rd=1.00:0.05 / mixed_ref=1 / me_range=48 / chroma_me=1 / trellis=2 / 8x8dct=1 / cqm=0 / deadzone=21,11 / fast_pskip=0 / chroma_qp_offset=-3 / threads=9 / lookahead_threads=2 / sliced_threads=0 / nr=0 / decimate=1 / interlaced=0 / bluray_compat=0 / constrained_intra=0 / bframes=11 / b_pyramid=2 / b_adapt=2 / b_bias=0 / direct=3 / weightb=1 / open_gop=0 / weightp=2 / keyint=250 / keyint_min=23 / scenecut=40 / intra_refresh=0 / rc_lookahead=60 / rc=2pass / mbtree=0 / bitrate=1976 / ratetol=1.0 / qcomp=0.70 / qpmin=0 / qpmax=69 / qpstep=4 / cplxblur=20.0 / qblur=0.5 / vbv_maxrate=14000 / vbv_bufsize=14000 / nal_hrd=none / filler=0 / ip_ratio=1.35 / pb_ratio=1.25 / aq=1:0.80
Language                    : Norwegian
Default                     : Yes
Forced                      : No

Audio #1
ID                          : 2
Format                      : AC-3
Format/Info                 : Audio Coding 3
Commercial name             : Dolby Digital
Codec ID                    : A_AC3
Duration                    : 1 h 56 min
Bit rate mode               : Constant
Bit rate                    : 448 kb/s
Channel(s)                  : 6 channels
Channel layout              : L R C LFE Ls Rs
Sampling rate               : 48.0 kHz
Frame rate                  : 31.250 FPS (1536 SPF)
Bit depth                   : 16 bits
Compression mode            : Lossy
Stream size                 : 373 MiB (16%)
Title                       : AVO [SATKUR] 5.1 448 Kbps
Language                    : Ukrainian
Service kind                : Complete Main
Default                     : Yes
Forced                      : No

Audio #2
ID                          : 3
Format                      : AC-3
Format/Info                 : Audio Coding 3
Commercial name             : Dolby Digital
Codec ID                    : A_AC3
Duration                    : 1 h 56 min
Bit rate mode               : Constant
Bit rate                    : 448 kb/s
Channel(s)                  : 6 channels
Channel layout              : L R C LFE Ls Rs
Sampling rate               : 48.0 kHz
Frame rate                  : 31.250 FPS (1536 SPF)
Bit depth                   : 16 bits
Compression mode            : Lossy
Stream size                 : 373 MiB (16%)
Title                       : Original, 5.1 448 Kbps
Language                    : Norwegian
Service kind                : Complete Main
Default                     : No
Forced                      : No

Text #1
ID                          : 4
Format                      : UTF-8
Codec ID                    : S_TEXT/UTF8
Codec ID/Info               : UTF-8 Plain Text
Duration                    : 1 h 54 min
Bit rate                    : 50 b/s
Count of elements           : 730
Stream size                 : 42.0 KiB (0%)
Title                       : Ukr full [ivan vyrvyvuho]
Language                    : Ukrainian
Default                     : No
Forced                      : No

Text #2
ID                          : 5
Format                      : UTF-8
Codec ID                    : S_TEXT/UTF8
Codec ID/Info               : UTF-8 Plain Text
Duration                    : 1 h 46 min
Bit rate                    : 30 b/s
Count of elements           : 659
Stream size                 : 23.9 KiB (0%)
Title                       : Eng
Language                    : English
Default                     : No
Forced                      : No

Text #3
ID                          : 6
Format                      : UTF-8
Codec ID                    : S_TEXT/UTF8
Codec ID/Info               : UTF-8 Plain Text
Duration                    : 1 h 46 min
Bit rate                    : 32 b/s
Count of elements           : 662
Stream size                 : 25.4 KiB (0%)
Title                       : Nor
Language                    : Norwegian
Default                     : No
Forced                      : No

Menu
00:00:00.000                : en:(01)00:00:00:000
00:07:48.665                : en:(02)00:07:48:665
00:21:41.040                : en:(03)00:21:41:040
00:29:42.833                : en:(04)00:29:42:833
00:45:40.541                : en:(05)00:45:40:541
00:56:47.458                : en:(06)00:56:47:458
01:04:23.416                : en:(07)01:04:23:416
01:18:24.500                : en:(08)01:18:24:500
01:21:56.041                : en:(09)01:21:56:041
01:33:57.832                : en:(10)01:33:57:832
01:36:26.332                : en:(11)01:36:26:332
01:51:13.332                : en:(12)01:51:13:332
Скріншоти:

Джерело: &


Авторський реліз (завантажувати можна без реєстрації)
 Трекер:    Зареєстрований   

Завантажити / скачати фільм українською



відео для новачків



 Зареєстрований:   2019-06-10 18:27
 Розмір:   2.34 GB 
 Оцінка фільму:   9.8/10 (Голосів: 18)
 ЗАЛИШАЙТЕСЬ ЯКОМОГА ДОВШЕ НА РОЗДАЧІ! ЗАВАНТАЖИВ САМ - ДАЙ ЗАВАНТАЖИТИ ІНШИМ!
   
vilko_hy 
Новенький


З нами з: 03.06.17
Востаннє: 20.11.19
Повідомлень: 18

2019-06-10 18:34  
якесь дежав'ю https://toloka.to/t101658?sid=88a654ca9d468f26a6f5de314f12172c тіж самиі яйки тільки під іншим кутом чи як
Anonymous 







2019-06-10 18:36  
vilko_hy написано:
якесь дежав'ю

це оригінал (до речі кращий), то рімейк

Onischuk.v7913 
Свій


З нами з: 05.08.16
Востаннє: 21.11.19
Повідомлень: 67

2019-06-10 21:03  
Це оригінал і цікавіший за рімейк. Навіть Нісон не поміг))))
Nickolassssssss 
Поважний учасник


З нами з: 31.05.14
Востаннє: 20.11.19
Повідомлень: 172

2019-06-13 22:24  
Посередній фільм, а озвучення жахливе. Добре, що хоча б субтитри є.
Ваш часовий пояс: GMT + 2 Години

Нова тема   Відповісти