Для того, щоб зникнути (Послідовне зникнення, In Order of Disappearance) / Kraftidioten (2014)

Нові коментарі

Нова тема   Відповісти
Автор Повідомлення
Anonymous 







2019-06-10 18:33  
Для того, щоб зникнути (Послідовне зникнення, In Order of Disappearance) / Kraftidioten (2014)

Альтернативні постери:















Жанр: трилер, кримінальний, драма
Країна: Норвегія, Данія, Швеція



Кінокомпанія: Paradox, Paradox Film 2, Det Danske Filminstitut, Danmarks Radio, Film i Väst, Fonds Eurimages du Conseil de l'Europe, MEDIA Programme of the European Union, Nordisk Film- & TV-Fond, Norwegian Film Institute, Storyline NOR, Svenska Filminstitutet (SFI), Zentropa Entertainments 5, Zentropa International Sweden
Режисер: Ганс Петтер Моланд / Hans Petter Moland
Актори: Стеллан Скашґорд / Stellan Skarsgård, Бірджітт Гйорт Соренсен / Birgitte Hjort Sørensen, Крістофер Гівйю / Kristofer Hivju, Тобіас Сантельманн / Tobias Santelmann, Якоб Офтебро / Jakob Oftebro, Бруно Ґанц / Bruno Ganz, Пал Сверре Гаґен / Pål Sverre Hagen, Андерс Басмо Крістіансен / Anders Baasmo Christiansen, Серґей Тріфунович / Sergej Trifunovic, Петер Андерссон / Peter Andersson, Давід Сакураі / David Sakurai, Стіґ Генрік Гофф / Stig Henrik Hoff, Ґоран Навоєч / Goran Navojec, Атле Антонсен / Atle Antonsen, Ян Ґюннар Ройсе / Jan Gunnar Røise

Сюжет:
У головного героя Нільса (Стеллан Скашґорд) страшне горе: йому повідомили, що його син помер від передозування наркотиків. Він не може в це повірити і раптом колишній колега сина по роботі повідомляє йому, що того помилково вбили наркоторговці. За будь-яку ціну Нільс вирішує дійти від дрібного дилера кокаїну до наркобарона і покарати всіх за смерть сина.
Офіційний трейлер:


Рейтинг MPAA: R - особам до 17 років обов'язкова присутність батьків або дорослого опікуна
Вікова категорія: 16+

Тривалість: 01:56:29
Якість:
Відео:
кодек:
розмір кадру: 720 х 304
бітрейт: 1402 кб/с

Аудіо:
мова: українська
переклад: одноголосий закадровий
кодек: 5.1
бітрейт: 448 кб/с
примітка: озвучено SATKUR за перекладом ivan vyrvyvuho
Info:
Код:
General
Complete name               : Kraftidioten (In Order of Disappearance) (2014) [Ukr] [Hurtom].avi
Format                      : AVI
Format/Info                 : Audio Video Interleave
File size                   : 1.51 GiB
Duration                    : 1 h 56 min
Overall bit rate            : 1 859 kb/s
Movie name                  : Для того, щоб зникнути / Послідовне зникнення / In Order of Disappearance / Kraftidioten (2014) [Ukr] [Hurtom]
Writing application         : VirtualDubModUkr 1.5.10.2 (build 2542/release)
Writing library             : VirtualDubMod build 2542/release

Video
ID                          : 0
Format                      : MPEG-4 Visual
Format profile              : Advanced [email protected]
Format settings             : BVOP1 / Custom Matrix
Format settings, BVOP       : 1
Format settings, QPel       : No
Format settings, GMC        : No warppoints
Format settings, Matrix     : Custom
Codec ID                    :
Codec ID/Hint               :
Duration                    : 1 h 56 min
Bit rate                    : 1 402 kb/s
Width                       : 720 pixels
Height                      : 304 pixels
Display aspect ratio        : 2.35:1
Frame rate                  : 24.000 FPS
Color space                 : YUV
Chroma subsampling          : 4:2:0
Bit depth                   : 8 bits
Scan type                   : Progressive
Compression mode            : Lossy
Bits/(Pixel*Frame)          : 0.267
Stream size                 : 1.14 GiB (75%)
Writing library             : 73

Audio
ID                          : 1
Format                      : AC-3
Format/Info                 : Audio Coding 3
Commercial name             : Dolby Digital
Codec ID                    : 2000
Duration                    : 1 h 56 min
Bit rate mode               : Constant
Bit rate                    : 448 kb/s
Channel(s)                  : 6 channels
Channel layout              : L R C LFE Ls Rs
Sampling rate               : 48.0 kHz
Frame rate                  : 31.250 FPS (1536 SPF)
Bit depth                   : 16 bits
Compression mode            : Lossy
Stream size                 : 373 MiB (24%)
Alignment                   : Split across interleaves
Interleave, duration        : 42  ms (1.00 video frame)
Interleave, preload duratio : 500  ms
Title                       : UKR AVO [SATKUR]
Service kind                : Complete Main


Джерело: &


Авторський реліз (завантажувати можна без реєстрації)
 Трекер:    Зареєстрований   

Завантажити / скачати фільм українською



відео для новачків



 Зареєстрований:   2019-06-10 18:33
 Розмір:   1.51 GB 
 Оцінка фільму:   9.7/10 (Голосів: 9)
 ЗАЛИШАЙТЕСЬ ЯКОМОГА ДОВШЕ НА РОЗДАЧІ! ЗАВАНТАЖИВ САМ - ДАЙ ЗАВАНТАЖИТИ ІНШИМ!
   
Leroy/ice 
Новенький


З нами з: 21.06.18
Востаннє: 16.06.19
Повідомлень: 1

2019-06-10 18:49  
Спочатку дивишся цей фільм,а після не дивишся cold pursuit 2019)
Ваш часовий пояс: GMT + 2 Години

Нова тема   Відповісти