Телефонна будка / Phone Booth (2002) 1080p H.265 2xUkr/Eng | Sub Eng

Нові коментарі

Нова тема   Відповісти
Автор Повідомлення
Anonymous 







2019-06-10 14:11  
Телефонна будка / Phone Booth (2002) 1080p H.265 2xUkr/Eng | Sub Eng

Телефонна будка / Phone Booth (2002) 1080p H.265 2xUkr/Eng | Sub Eng


Жанр: трилер, детектив, кримінальний
Країна: США
Кінокомпанія: Fox 2000 Pictures, Zucker/Netter Productions
Режисер: Джоель Шумахер / Joel Schumacher
Актори: Колін Фаррелл / Colin Farrell, Кіфер Сазерленд / Kiefer Sutherland, Форест Вайтакер / Forest Whitaker, Рада Мітчел / Radha Mitchell, Кеті Голмс / Katie Holmes, Паула Джей Паркер / Paula Jai Parker, Аріан Варінг Еш / Arian Waring Ash, Тіа Тексада / Tia Texada, Джон Енос ІІІ / John Enos III, Річард Т. Джонс / Richard T. Jones, Кейт Ноббс / Keith Nobbs, Делл Юнт / Dell Yount, Джеймс МакДональд / James MacDonald, Джош Пайс / Josh Pais, Йорго Костянтин / Yorgo Constantine

Сюжет:
Один телефонний дзвінок може змінити все життя людини або навіть обірвати його. Герой фільму Стью Шеферд стає полоненим телефонної будки.
Що ви зробите, якщо почуєте, як в телефонній будці задзвонив телефон? Швидше за все, інстинктивно піднімете слухавку, хоча чудово знаєте, що хтось просто помилився номером. Ось і Стью здається, що на дзвінок треба обов'язково відповісти, а в результаті він виявляється втягнутим в жахливу гру. «Тільки поклади трубку, і ти - труп», - говорить йому невидимий співбесідник.

Тривалість: 01:21:00
Якість:
Відео:
кодек: H.265 (HEVC)
розмір кадру: 1920 x 814
бітрейт: 16 503 кб/с
бітова глибина: 10 біт
Увага! Перед завантаженням переконайтесь, що ваш пристрій відтворення (та/або ПЗ) підтримує H.265 (HEVC)

Аудіо # 1:
мова: українська
переклад: професійний дубльований
кодек: AC-3 2.0
бітрейт: 192 кб/с

Аудіо # 2:
мова: українська
переклад: багатоголосий закадровий
кодек: AC-3 2.0
бітрейт: 192 кб/с

Аудіо # 3:
мова: англійська
переклад: оригінал
кодек: 5.1
бітрейт: 1510 кб/с

Субтитри # 1:
мова: українська (Full),
тип: програмні (м'які)
формат: *.srt

Субтитри # 2:
мова: англійська (Full),
тип: програмні (м'які)
формат: *.srt


Info
Код:
General
Unique ID                                : 102720339639396491764296682807473578634 (0x4D4737C1CCFB0A3AE2AD236975BDA28A)
Complete name                            : F:\Video\Phone Booth (2002) 1080p H.265 [2xUKR_ENG] [Hurtom].
Format                                   :
Format version                           : Version 4 / Version 2
File size                                : 10.4 GiB
Duration                                 : 1 h 21 min
Overall bit rate                         : 18.4 Mb/s
Movie name                               : Телефонна будка / Phone Booth (2002)
Encoded date                             : UTC 2019-06-09 19:49:13
Writing application                      : v20.0.0 ('I Am The Sun') 64-bit
Writing library                          : libebml v1.3.5 + v1.4.8
Cover                                    : Yes
Attachments                              : cover.jpg

Video
ID                                       : 1
Format                                   : HEVC
Format/Info                              : High Efficiency Video Coding
Format profile                           : Main [email protected]@High
Codec ID                                 : V_MPEGH/ISO/HEVC
Duration                                 : 1 h 21 min
Bit rate                                 : 16.5 Mb/s
Width                                    : 1 920 pixels
Height                                   : 814 pixels
Display aspect ratio                     : 2.35:1
Frame rate mode                          : Constant
Frame rate                               : 23.976 (24000/1001) FPS
Color space                              : YUV
Chroma subsampling                       : 4:2:0
Bit depth                                : 10 bits
Bits/(Pixel*Frame)                       : 0.440
Stream size                              : 9.34 GiB (90%)
Title                                    : Телефонна будка / Phone Booth (2002)
Writing library                          : x265 2.9+9-f74003e88622:[Windows][GCC 8.2.0][64 bit] 10bit
Encoding settings                        : cpuid=1111039 / frame-threads=13 / numa-pools=12 / wpp / no-pmode / no-pme / no-psnr / no-ssim / log-level=3 / input-csp=1 / input-res=1920x814 / interlace=0 / total-frames=0 / level-idc=41 / high-tier=1 / uhd-bd=0 / ref=5 / allow-non-conformance / no-repeat-headers / annexb / no-aud / no-hrd / info / hash=0 / no-temporal-layers / open-gop / min-keyint=23 / keyint=240 / gop-lookahead=0 / bframes=8 / b-adapt=2 / b-pyramid / bframe-bias=0 / rc-lookahead=60 / lookahead-slices=4 / scenecut=40 / radl=0 / no-intra-refresh / ctu=64 / min-cu-size=8 / rect / amp / max-tu-size=32 / tu-inter-depth=4 / tu-intra-depth=4 / limit-tu=0 / rdoq-level=2 / dynamic-rd=0.00 / no-ssim-rd / signhide / no-tskip / nr-intra=0 / nr-inter=0 / no-constrained-intra / no-strong-intra-smoothing / max-merge=5 / limit-refs=2 / limit-modes / me=3 / subme=7 / merange=57 / temporal-mvp / weightp / weightb / no-analyze-src-pics / deblock=-3:-3 / no-sao / no-sao-non-deblock / rd=6 / no-early-skip / rskip / no-fast-intra / no-tskip-fast / no-cu-lossless / b-intra / no-splitrd-skip / rdpenalty=0 / psy-rd=2.00 / psy-rdoq=1.00 / no-rd-refine / no-lossless / cbqpoffs=0 / crqpoffs=0 / rc=crf / crf=19.5 / qcomp=0.70 / qpstep=4 / stats-write=0 / stats-read=0 / vbv-maxrate=50000 / vbv-bufsize=50000 / vbv-init=0.9 / crf-max=0.0 / crf-min=0.0 / ipratio=1.40 / pbratio=1.30 / aq-mode=2 / aq-strength=1.00 / no-cutree / zone-count=0 / no-strict-cbr / qg-size=32 / no-rc-grain / qpmax=69 / qpmin=0 / no-const-vbv / sar=1 / overscan=0 / videoformat=5 / range=0 / colorprim=1 / transfer=1 / colormatrix=1 / chromaloc=0 / display-window=0 / max-cll=0,0 / min-luma=0 / max-luma=1023 / log2-max-poc-lsb=8 / vui-timing-info / vui-hrd-info / slices=1 / no-opt-qp-pps / no-opt-ref-list-length-pps / no-multi-pass-opt-rps / scenecut-bias=0.05 / no-opt-cu-delta-qp / aq-motion / no-hdr / no-hdr-opt / no-dhdr10-opt / no-idr-recovery-sei / analysis-reuse-level=5 / scale-factor=0 / refine-intra=0 / refine-inter=0 / refine-mv=0 / no-limit-sao / ctu-info=0 / no-lowpass-dct / refine-mv-type=0 / copy-pic=1 / max-ausize-factor=1.0 / no-dynamic-refine / no-single-sei
Language                                 : English
Default                                  : Yes
Forced                                   : No
Color range                              : Limited
Color primaries                          : BT.709
Transfer characteristics                 : BT.709
Matrix coefficients                      : BT.709

Audio #1
ID                                       : 2
Format                                   : AC-3
Format/Info                              : Audio Coding 3
Codec ID                                 : A_AC3
Duration                                 : 1 h 21 min
Bit rate mode                            : Constant
Bit rate                                 : 192 kb/s
Channel(s)                               : 2 channels
Channel positions                        : Front: L R
Sampling rate                            : 48.0 kHz
Frame rate                               : 31.250 FPS (1536 SPF)
Bit depth                                : 16 bits
Compression mode                         : Lossy
Stream size                              : 111 MiB (1%)
Title                                    : ПД - ICTV
Language                                 : Ukrainian
Service kind                             : Complete Main
Default                                  : Yes
Forced                                   : Yes

Audio #2
ID                                       : 3
Format                                   : AC-3
Format/Info                              : Audio Coding 3
Codec ID                                 : A_AC3
Duration                                 : 1 h 21 min
Bit rate mode                            : Constant
Bit rate                                 : 192 kb/s
Channel(s)                               : 2 channels
Channel positions                        : Front: L R
Sampling rate                            : 48.0 kHz
Frame rate                               : 31.250 FPS (1536 SPF)
Bit depth                                : 16 bits
Compression mode                         : Lossy
Stream size                              : 111 MiB (1%)
Title                                    : БЗ - 2+2
Language                                 : Ukrainian
Service kind                             : Complete Main
Default                                  : No
Forced                                   : No

Audio #3
ID                                       : 4
Format                                   :
Format/Info                              : Digital Theater Systems
Codec ID                                 : A_DTS
Duration                                 : 1 h 21 min
Bit rate mode                            : Constant
Bit rate                                 : 1 509 kb/s
Channel(s)                               : 6 channels
Channel positions                        : Front: L C R, Side: L R, LFE
Sampling rate                            : 48.0 kHz
Frame rate                               : 93.750 FPS (512 SPF)
Bit depth                                : 24 bits
Compression mode                         : Lossy
Stream size                              : 874 MiB (8%)
Title                                    : Original
Language                                 : English
Default                                  : No
Forced                                   : No

Text #1
ID                                       : 5
Format                                   : UTF-8
Codec ID                                 : S_TEXT/UTF8
Codec ID/Info                            : UTF-8 Plain Text
Duration                                 : 1 h 14 min
Bit rate                                 : 192 b/s
Count of elements                        : 1375
Stream size                              : 105 KiB (0%)
Title                                    : Full
Language                                 : Ukrainian
Default                                  : No
Forced                                   : No

Text #2
ID                                       : 6
Format                                   : UTF-8
Codec ID                                 : S_TEXT/UTF8
Codec ID/Info                            : UTF-8 Plain Text
Duration                                 : 1 h 12 min
Bit rate                                 : 116 b/s
Count of elements                        : 1253
Stream size                              : 62.1 KiB (0%)
Title                                    : Full
Language                                 : English
Default                                  : No
Forced                                   : No

Menu
00:00:00.000                             : en:The Last Phone Booth
00:03:42.973                             : en:The Publicist
00:08:58.455                             : en:A Free Pizza
00:10:20.370                             : en:Pam
00:11:45.955                             : en:The Caller
00:14:05.595                             : en:Exposed
00:17:34.387                             : en:Kelly
00:21:19.320                             : en:Don't Hang Up
00:23:22.359                             : en:The Others
00:25:01.417                             : en:Leon's Girls
00:29:00.948                             : en:Guilty
00:32:00.627                             : en:The Cops
00:34:57.762                             : en:Captain Ramey
00:39:19.440                             : en:The Center of Attention
00:43:10.296                             : en:The Cell Phone
00:45:54.502                             : en:She's Not My Wife
00:47:50.534                             : en:The Perfect Violation
00:51:44.059                             : en:Hung Up
00:54:09.621                             : en:The Odds Are Even
00:56:35.767                             : en:Kelly or Pam?
00:58:09.486                             : en:A Sniper Situation
01:00:58.238                             : en:Trust Is the Key
01:03:53.204                             : en:A Chance for Redemption
01:08:50.418                             : en:The Man in 604
01:11:06.095                             : en:A Familiar Face
01:12:30.555                             : en:You'll Be Hearing From Me
01:14:06.067                             : en:A Ringing Phone
01:15:02.456                             : en:End Titles
Світлини





Джерело: &
Особиста оцінка: 0 - не дивився


Срібний реліз (на рейтинг впливає 50% завантаженого)
 Трекер:    Зареєстрований   

Завантажити / скачати фільм українською



відео для новачків



 Зареєстрований:   2019-06-10 14:11
 Розмір:   10.41 GB 
 Оцінка фільму:   9.5/10 (Голосів: 2)
   
Інші релізи
Lyolic 
VIP


З нами з: 04.08.09
Востаннє: 19.08.19
Повідомлень: 382

2019-06-10 15:27  
-Star-Lord- написано:
Жанр: жахи, трилер

Жахи? )))
На IMDb: Crime, Thriller

Щось бітрейт аж з перебором )

Anonymous 







2019-06-10 16:34  
Lyolic написано:
Жахи? )))

Дякую! Виправив)
Так було в інших релізах)

Lyolic написано:
Щось бітрейт аж з перебором )

Ріп не мій, та і кодувалося в CRF 19.5 - мало би бути менше)

Ваш часовий пояс: GMT + 2 Години

Нова тема   Відповісти