Адаптацiя. / Adaptation. (2002) 1080p Ukr/Eng | Sub Eng

Нові коментарі

Нова тема   Відповісти
Автор Повідомлення
Anonymous 







2019-06-10 13:01  
Адаптацiя. / Adaptation. (2002) 1080p Ukr/Eng | Sub Eng

Адаптацiя. / Adaptation. (2002) 1080p Ukr/Eng | Sub Eng


Жанр: комедія, драма
Країна: США



Кінокомпанія: Beverly Detroit, Clinica Estetico, Good Machine
Режисер: Спайк Джонз / Spike Jonze
Актори: Ніколас Кейдж, Тільда Свінтон, Меріл Стріп, Кріс Купер, Джей Таваре, Лайтфут, Роджер Віллі, Джим Бівер, Кера Сеймур, Даґ Джонс, Стівен Тоболовскі, Ґері Фармер, Пітер Джейсон, Ґреґорі Ітцин, Кертіс Генсон, Аґнес НаДін Бадду, Пол Форчун, Пол Джасмін, Ліза Лав, Венді Моґел, Девід О. Расселл, Джуді Грір, Меґґі Джилленгол, Роберт Дж. Стефенсон, Лінн Корт, Роджер І. Фантер, Сандра Лі Джімпел, Рон Лівінґстон

Сюжет:
У 1992 році Джон Ларош і його дружина засновують у Флориді розплідник для рослин. Однак в автомобільній катастрофі гинуть мати і дядько Ларош, а дружина після приходу до тями подає на розлучення. Через місяць через ураган Ендрю виявляється зруйнованим розплідник і будинок. Лароша, завдяки його знанням по вирощуванню і пошуку орхідей, наймають місцеві індіанці семіноли, що використовують орхідеї для створення наркотиків.


Тривалість: 01:54:55
Якість:
Відео:
кодек:
розмір кадру: 1920х1040
бітрейт: 8 022 кб/с

Аудіо # 1:
мова: українська
переклад: багатоголосий закадровий
кодек: 2.0 (stereo)
бітрейт: 192 кб/с

Аудіо # 2:
мова: англійська
переклад: оригінал
кодек: 5.1
бітрейт: 1 509 кб/с

Субтитри:
мова: англійська
тип: програмні (м'які)
формат: *.srt
Info
General
Unique ID : 192566159933609743336097236998763149060 (0x90DEE4B3D7B39A40A54FD17D20ED7704)
Format :
Format version : Version 4
File size : 7.80 GiB
Duration : 1 h 54 min
Overall bit rate : 9 719 kb/s
Encoded date : UTC 2019-06-10 09:47:44
Writing application : v6.1.0 ('Old Devil') built on Mar 4 2013 09:10:42
Writing library : libebml v1.3.0 + v1.4.0

Video
ID : 1
Format : AVC
Format/Info : Advanced Video Codec
Format profile : [email protected]
Format settings : CABAC / 4 Ref Frames
Format settings, CABAC : Yes
Format settings, RefFrames : 4 frames
Codec ID : V_MPEG4/ISO/AVC
Duration : 1 h 54 min
Bit rate : 8 022 kb/s
Width : 1 920 pixels
Height : 1 040 pixels
Display aspect ratio : 1.85:1
Frame rate mode : Constant
Frame rate : 23.976 (24000/1001) FPS
Color space : YUV
Chroma subsampling : 4:2:0
Bit depth : 8 bits
Scan type : Progressive
Bits/(Pixel*Frame) : 0.168
Stream size : 6.28 GiB (81%)
Writing library : core 120 r2120 0c7dab9
Encoding settings : cabac=1 / ref=4 / deblock=1:0:0 / analyse=0x3:0x113 / me=umh / subme=8 / psy=1 / psy_rd=1.00:0.00 / mixed_ref=1 / me_range=16 / chroma_me=1 / trellis=1 / 8x8dct=1 / cqm=0 / deadzone=21,11 / fast_pskip=1 / chroma_qp_offset=-2 / threads=12 / sliced_threads=0 / nr=0 / decimate=1 / interlaced=0 / bluray_compat=0 / constrained_intra=0 / bframes=3 / b_pyramid=2 / b_adapt=2 / b_bias=0 / direct=3 / weightb=1 / open_gop=0 / weightp=2 / keyint=240 / keyint_min=24 / scenecut=40 / intra_refresh=0 / rc_lookahead=50 / rc=2pass / mbtree=1 / bitrate=8022 / ratetol=1.0 / qcomp=0.60 / qpmin=0 / qpmax=69 / qpstep=4 / cplxblur=20.0 / qblur=0.5 / ip_ratio=1.40 / aq=1:1.00
Language : English
Default : Yes
Forced : No

Audio #1
ID : 2
Format : AC-3
Format/Info : Audio Coding 3
Commercial name : Dolby Digital
Codec ID : A_AC3
Duration : 1 h 54 min
Bit rate mode : Constant
Bit rate : 192 kb/s
Channel(s) : 2 channels
Channel layout : L R
Sampling rate : 48.0 kHz
Frame rate : 31.250 FPS (1536 SPF)
Bit depth : 16 bits
Compression mode : Lossy
Stream size : 158 MiB (2%)
Title : UKR
Language : Ukrainian
Service kind : Complete Main
Default : Yes
Forced : Yes

Audio #2
ID : 3
Format :
Format/Info : Digital Theater Systems
Codec ID : A_DTS
Duration : 1 h 54 min
Bit rate mode : Constant
Bit rate : 1 509 kb/s
Channel(s) : 6 channels
Channel layout : C L R Ls Rs LFE
Sampling rate : 48.0 kHz
Frame rate : 93.750 FPS (512 SPF)
Bit depth : 24 bits
Compression mode : Lossy
Stream size : 1.21 GiB (16%)
Language : English
Default : No
Forced : No

Text
ID : 4
Format : UTF-8
Codec ID : S_TEXT/UTF8
Codec ID/Info : UTF-8 Plain Text
Language : English
Default : No
Forced : No

Menu
00:00:00.000 : en:00:00:00.000
00:06:10.870 : en:00:06:10.870
00:12:15.068 : en:00:12:15.068
00:19:18.699 : en:00:19:18.699
00:27:27.062 : en:00:27:27.062
00:34:05.001 : en:00:34:05.001
00:42:18.035 : en:00:42:18.035
00:48:24.527 : en:00:48:24.527
00:58:27.671 : en:00:58:27.671
01:06:20.476 : en:01:06:20.476
01:13:35.119 : en:01:13:35.119
01:17:39.864 : en:01:17:39.864
01:22:19.309 : en:01:22:19.309
01:27:26.575 : en:01:27:26.575
01:33:13.755 : en:01:33:13.755
01:42:06.120 : en:01:42:06.120
Скріншоти






За українську доріжку подяка п. Sando7
Особиста подяка пану denixx за надану матеріальну допомогу на підтримку цього і майбутніх релізів.
Джерело:


Срібний реліз (на рейтинг впливає 50% завантаженого)
 Трекер:    Зареєстрований   

Завантажити / скачати фільм українською



відео для новачків



 Зареєстрований:   2019-06-10 13:01
 Розмір:   7.8 GB 
 Оцінка фільму:   10/10 (Голосів: 5)
   
Інші релізи
   Адаптацiя. / Adaptation. (2002) Remux 1080p Ukr/Eng | Sub Eng staf777  2 / 0   18.69 GB   2018-07-12 18:27 
   Адаптацiя. / Adaptation. (2002) 720p Ukr/Eng | Sub Eng staf777  1 / 0   6.58 GB   2018-07-10 16:55 
   Адаптацiя. / Adaptation. (2002) AVC Ukr/Eng | Sub Eng Sando7  6 / 0   2.13 GB   2018-07-09 12:31 
Ваш часовий пояс: GMT + 2 Години

Нова тема   Відповісти