Для того, щоб зникнути (Послідовне зникнення, In Order of Disappearance) / Kraftidioten (2014) 720p Ukr/Nor | Sub Ukr/Eng/Nor

Нові коментарі

Нова тема   Відповісти
Автор Повідомлення
Anonymous 







2019-06-10 10:45  
Для того, щоб зникнути / Послідовне зникнення / In Order of Disappearance / Kraftidioten (2014) 720p Ukr/Nor | Sub Ukr/Eng/Nor

Альтернативні постери:















Жанр: трилер, кримінальний, драма
Країна: Норвегія, Данія, Швеція



Кінокомпанія: Paradox, Paradox Film 2, Det Danske Filminstitut, Danmarks Radio, Film i Väst, Fonds Eurimages du Conseil de l'Europe, MEDIA Programme of the European Union, Nordisk Film- & TV-Fond, Norwegian Film Institute, Storyline NOR, Svenska Filminstitutet (SFI), Zentropa Entertainments 5, Zentropa International Sweden
Режисер: Ганс Петтер Моланд / Hans Petter Moland
Актори: Стеллан Скашґорд / Stellan Skarsgård, Бірджітт Гйорт Соренсен / Birgitte Hjort Sørensen, Крістофер Гівйю / Kristofer Hivju, Тобіас Сантельманн / Tobias Santelmann, Якоб Офтебро / Jakob Oftebro, Бруно Ґанц / Bruno Ganz, Пал Сверре Гаґен / Pål Sverre Hagen, Андерс Басмо Крістіансен / Anders Baasmo Christiansen, Серґей Тріфунович / Sergej Trifunovic, Петер Андерссон / Peter Andersson, Давід Сакураі / David Sakurai, Стіґ Генрік Гофф / Stig Henrik Hoff, Ґоран Навоєч / Goran Navojec, Атле Антонсен / Atle Antonsen, Ян Ґюннар Ройсе / Jan Gunnar Røise

Сюжет:
У головного героя Нільса (Стеллан Скарсґард) страшне горе: йому повідомили, що його син помер від передозування наркотиків. Він не може в це повірити і раптом колишній колега сина по роботі повідомляє йому, що того помилково вбили наркоторговці. За будь-яку ціну Нільс вирішує дійти від дрібного дилера кокаїну до наркобарона і покарати всіх за смерть сина.
Офіційний трейлер:


Рейтинг MPAA: R - особам до 17 років обов'язкова присутність батьків або дорослого опікуна
Вікова категорія: 16+

Тривалість: 01:56:28
Якість: 720p
Відео:
кодек:
розмір кадру: 1280 х 544
бітрейт: 4712 кб/с

Аудіо # 1:
мова: українська
переклад: одноголосий закадровий
кодек: 5.1
бітрейт: 448 кб/с
примітка: озвучено SATKUR за субтитрами ivan vyrvyvuho

Аудіо # 2:
мова: норвезька
переклад: оригінал
кодек: 5.1
бітрейт: 640 кб/с

Субтитри # 1:
мова: українська
тип: програмні (м'які)
формат: *.srt
переклад: ivan vyrvyvuho

Субтитри # 2:
мова: англійська
тип: програмні (м'які)
формат: *.srt

Субтитри # 3:
мова: норвезька
тип: програмні (м'які)
формат: *.srt

Збережено оригінальні розділи, як на Blu-ray
Info та log:
Код:
Complete name               : Kraftidioten (In Order of Disappearance) (2014) [Ukr,Nor sub.Ukr,Eng,Nor] 720p [Hurtom].
Format                      :
Format version              : Version 4
File size                   : 4.72 GiB
Duration                    : 1 h 56 min
Overall bit rate            : 5 803 kb/s
Movie name                  : Для того, щоб зникнути / Послідовне зникнення / In Order of Disappearance / Kraftidioten (2014) [Ukr,Nor sub.Ukr,Eng,Nor] 720p [Hurtom]
Encoded date                : UTC 2019-06-10 13:55:10
Writing application         : v34.0.0 ('Sight and Seen') 64-bit
Writing library             : libebml v1.3.7 + v1.5.0
Cover                       : Yes
Attachments                 : cover.jpg

Video
ID                          : 1
Format                      : AVC
Format/Info                 : Advanced Video Codec
Format profile              : [email protected]
Format settings             : CABAC / 12 Ref Frames
Format settings, CABAC      : Yes
Format settings, Reference  : 12 frames
Codec ID                    : V_MPEG4/ISO/AVC
Duration                    : 1 h 56 min
Bit rate                    : 4 712 kb/s
Width                       : 1 280 pixels
Height                      : 544 pixels
Display aspect ratio        : 2.35:1
Frame rate mode             : Constant
Frame rate                  : 24.000 FPS
Color space                 : YUV
Chroma subsampling          : 4:2:0
Bit depth                   : 8 bits
Scan type                   : Progressive
Bits/(Pixel*Frame)          : 0.282
Stream size                 : 3.83 GiB (81%)
Title                       : Для того, щоб зникнути / Послідовне зникнення / In Order of Disappearance / Kraftidioten (2014) 720p [Tonik]
Writing library             : core 144 r2525 40bb568
Encoding settings           : cabac=1 / ref=12 / deblock=1:-3:-3 / analyse=0x3:0x133 / me=umh / subme=11 / psy=1 / psy_rd=1.00:0.00 / mixed_ref=1 / me_range=32 / chroma_me=1 / trellis=2 / 8x8dct=1 / cqm=0 / deadzone=21,11 / fast_pskip=0 / chroma_qp_offset=-2 / threads=12 / lookahead_threads=3 / sliced_threads=0 / nr=0 / decimate=1 / interlaced=0 / bluray_compat=0 / constrained_intra=0 / bframes=11 / b_pyramid=2 / b_adapt=2 / b_bias=0 / direct=1 / weightb=1 / open_gop=0 / weightp=2 / keyint=250 / keyint_min=24 / scenecut=40 / intra_refresh=0 / rc=crf / mbtree=0 / crf=16.0 / qcomp=0.60 / qpmin=0 / qpmax=69 / qpstep=4 / ip_ratio=1.40 / pb_ratio=1.30 / aq=1:1.00
Language                    : Norwegian
Default                     : Yes
Forced                      : No

Audio #1
ID                          : 2
Format                      : AC-3
Format/Info                 : Audio Coding 3
Commercial name             : Dolby Digital
Codec ID                    : A_AC3
Duration                    : 1 h 56 min
Bit rate mode               : Constant
Bit rate                    : 448 kb/s
Channel(s)                  : 6 channels
Channel layout              : L R C LFE Ls Rs
Sampling rate               : 48.0 kHz
Frame rate                  : 31.250 FPS (1536 SPF)
Bit depth                   : 16 bits
Compression mode            : Lossy
Stream size                 : 373 MiB (8%)
Title                       : AVO [SATKUR] 5.1 448 Kbps
Language                    : Ukrainian
Service kind                : Complete Main
Default                     : Yes
Forced                      : No

Audio #2
ID                          : 3
Format                      : AC-3
Format/Info                 : Audio Coding 3
Commercial name             : Dolby Digital
Codec ID                    : A_AC3
Duration                    : 1 h 56 min
Bit rate mode               : Constant
Bit rate                    : 640 kb/s
Channel(s)                  : 6 channels
Channel layout              : L R C LFE Ls Rs
Sampling rate               : 48.0 kHz
Frame rate                  : 31.250 FPS (1536 SPF)
Bit depth                   : 16 bits
Compression mode            : Lossy
Stream size                 : 533 MiB (11%)
Title                       : Original, 5.1 640 Kbps
Language                    : Norwegian
Service kind                : Complete Main
Default                     : No
Forced                      : No

Text #1
ID                          : 4
Format                      : UTF-8
Codec ID                    : S_TEXT/UTF8
Codec ID/Info               : UTF-8 Plain Text
Duration                    : 1 h 54 min
Bit rate                    : 50 b/s
Count of elements           : 730
Stream size                 : 42.0 KiB (0%)
Title                       : Ukr full [ivan vyrvyvuho]
Language                    : Ukrainian
Default                     : No
Forced                      : No

Text #2
ID                          : 5
Format                      : UTF-8
Codec ID                    : S_TEXT/UTF8
Codec ID/Info               : UTF-8 Plain Text
Duration                    : 1 h 46 min
Bit rate                    : 30 b/s
Count of elements           : 659
Stream size                 : 23.9 KiB (0%)
Title                       : Eng full
Language                    : English
Default                     : No
Forced                      : No

Text #3
ID                          : 6
Format                      : UTF-8
Codec ID                    : S_TEXT/UTF8
Codec ID/Info               : UTF-8 Plain Text
Duration                    : 1 h 46 min
Bit rate                    : 32 b/s
Count of elements           : 658
Stream size                 : 25.3 KiB (0%)
Title                       : Nor full
Language                    : Norwegian
Default                     : No
Forced                      : No

Menu
00:00:00.000                : en:00:00:00:000
00:07:48.665                : en:00:07:48:665
00:21:41.040                : en:00:21:41:040
00:29:42.833                : en:00:29:42:833
00:45:40.541                : en:00:45:40:541
00:56:47.458                : en:00:56:47:458
01:04:23.416                : en:01:04:23:416
01:18:24.500                : en:01:18:24:500
01:21:56.041                : en:01:21:56:041
01:33:57.832                : en:01:33:57:832
01:36:26.332                : en:01:36:26:332
01:51:13.332                : en:01:51:13:332


Код:
[info]: frame I:1147 Avg QP:12.25 size:119620
[info]: frame P:33884 Avg QP:13.55 size: 42295
[info]: frame B:132694 Avg QP:14.93 size: 19186
Скріншоти:

Джерело: &


Авторський реліз (завантажувати можна без реєстрації)
 Трекер:    Зареєстрований   

Завантажити / скачати фільм українською



відео для новачків



 Зареєстрований:   2019-06-10 17:16
 Розмір:   4.72 GB 
 Оцінка фільму:   9.5/10 (Голосів: 15)
 ЗАЛИШАЙТЕСЬ ЯКОМОГА ДОВШЕ НА РОЗДАЧІ! ЗАВАНТАЖИВ САМ - ДАЙ ЗАВАНТАЖИТИ ІНШИМ!
   
whitelaw 
Свій


З нами з: 20.05.15
Востаннє: 07.12.19
Повідомлень: 59

2019-06-14 22:49  
Шикарний фільм. Дізнався про цей фільм, завдяки ремейку, який не пасе задніх.
Ваш часовий пояс: GMT + 2 Години

Нова тема   Відповісти