Формула 1. Сезон 2019. Етап 7. Гран-Прі Канади. Гонка (09.06.2019) 720p

Нові коментарі

Нова тема   Відповісти
Автор Повідомлення
sergiyko.5 
VIP


З нами з: 25.02.16
Востаннє: 20.10.20
Повідомлень: 3578

2019-06-10 00:35  
Формула 1. Сезон 2019. Етап 7. Гран-Прі Канади. Гонка (09.06.2019) 720p

Формула 1. Сезон 2019. Етап 7. Гран-Прі Канади. Гонка (09.06.2019) 720p

Жанр: Перегони Формули 1
Країна: Канада
Телеканал: Матч TV
Коментатор: Максим Подзігун

Опис:
Гонка сьомого етапу Гран-Прі Канади 2019 року.


Якість:

Відео:кодек: розмір кадру: 1280 х 720 бітрейт: 4000 кб/с
Аудіо : мова: українська кодек: MP2 2.0 бітрейт: 192 кб/с

Примітка: була вирізана реклама, загалом тривалістю 3 хвилини.
Тривалість:
01:55:24
Про файл:
General
Unique ID : 29064164815663441635347768461683241970 (0x15DD8DF5DB0AA3EC89D23DC30C62B3F2)
Complete name : G:\Torrents2\SPORT\Formula 1\F1.2019.Race\F1.2019.07.Canadian.Race.720p..Ukr.
Format :
Format version : Version 4
File size : 3.41 GiB
Duration : 1 h 55 min
Overall bit rate : 4 235 kb/s
Encoded date : UTC 2019-06-09 21:30:37
Writing application : v34.0.0 ('Sight and Seen') 64-bit
Writing library : libebml v1.3.7 + v1.5.0

Video
ID : 1
Format : AVC
Format/Info : Advanced Video Codec
Format profile : [email protected]
Format settings : CABAC / 4 Ref Frames
Format settings, CABAC : Yes
Format settings, Reference : 4 frames
Format settings, GOP : M=2, N=15
Codec ID : V_MPEG4/ISO/AVC
Duration : 1 h 55 min
Bit rate : 4 040 kb/s
Width : 1 280 pixels
Height : 720 pixels
Display aspect ratio : 16:9
Frame rate mode : Constant
Frame rate : 50.000 FPS
Color space : YUV
Chroma subsampling : 4:2:0
Bit depth : 8 bits
Scan type : Progressive
Bits/(Pixel*Frame) : 0.088
Stream size : 3.26 GiB (95%)
Language : English
Default : Yes
Forced : No

Audio
ID : 2
Format : MPEG Audio
Format version : Version 1
Format profile : Layer 2
Codec ID : A_MPEG/L2
Codec ID/Hint : MP2
Duration : 1 h 55 min
Bit rate mode : Constant
Bit rate : 192 kb/s
Channel(s) : 2 channels
Sampling rate : 48.0 kHz
Frame rate : 41.667 FPS (1152 SPF)
Compression mode : Lossy
Delay relative to video : 4 ms
Stream size : 158 MiB (5%)
Title : Максим Подзігун
Language : Ukrainian
Default : Yes
Forced : No
Скріншоти:



Зведення: sergiyko


 Трекер:    Зареєстрований   

Завантажити / скачати торрент



відео для новачків



 Зареєстрований:   2019-06-10 00:35
 Розмір:   3.41 GB 
 Оцінка:   10/10 (Голосів: 16)
   
VicCob 
Свій


З нами з: 16.06.10
Востаннє: 11.10.20
Повідомлень: 57

2019-06-10 00:39  
Дякую!
Forseti 
Новенький


З нами з: 25.08.12
Востаннє: 14.10.20
Повідомлень: 2

2019-06-10 01:07  
sergiyko.5
Ціную і вдячний вам за працю. Але то що ви викладаєте відеоряд з ТВ каналу країни окупанта і агресора, категорично засуджую.

sergiyko.5 
VIP


З нами з: 25.02.16
Востаннє: 20.10.20
Повідомлень: 3578

2019-06-10 01:18  
Forseti
Проходьте повз. Відео окупанти купують в Європі.

Додано через 3 хвилини 45 секунд:

Чому ви, як громадянин Україне нічорта не робите, щоб Формулу транслювали у нас!? Ви написали звернення до парламенту, депутатів, телеканалів? Ви створили ініціативну групу, ви щось робите?

Чи тільки засуджуєте?

butser 
Новенький


З нами з: 10.04.18
Востаннє: 20.10.20
Повідомлень: 15

2019-06-10 01:34  
Дуже дякую!
sergiykos 
Новенький


З нами з: 29.05.18
Востаннє: 19.10.20
Повідомлень: 6

2019-06-10 02:00  
Forseti написано:
Ціную і вдячний вам за працю. Але то що ви викладаєте відеоряд з ТВ каналу країни окупанта і агресора, категорично засуджую.


Я б не був таким категоричним. По-перше тв стрім, як я розумію, на всі країни йде однаковий а ті вже ретраснлюють зі своєю озвучкою та рекламою. Тому цей стрім важко назвати чисто російським.
По-друге контент в роздачі в деякій мірі піратьскій і порушує права російського правовласника. Тобто преглядом цього відео ви навпаки завдаєте їм шкоди(хай і віртуально, але ж шкоди).
Ну а по-третє, є варіант просто не дивитися, якщо це настільки вам принципово. Бо по такій логіці і з рутрекера некошерно качати.

11FrYkT 
Модератор відео


З нами з: 20.02.11
Востаннє: 19.10.20
Повідомлень: 7006

2019-06-10 11:14  
sergiyko.5 , додайте звіт МІ
N.W.A 
VIP


З нами з: 22.11.13
Востаннє: 20.10.20
Повідомлень: 355

2019-06-11 02:26  
Тотальна несправедливість, зараз стюарти все вирішують за пілотів, яким не тільки треба у боліді клас показати, а ще й понервуватись через чиїсь дибільні рішення.
Не та вже формула що колись, і коментувати нормально треба, а не з прихованою підтримкою тих чи інших, пам’ятаю часи коли Подзігун краще справлявся.
Дякую за реліз.

Ваш часовий пояс: GMT + 2 Години

Нова тема   Відповісти