Формула 1. Сезон 2019. Етап 7. Гран-Прі Канади. Кваліфікація (08.06.2019) 720p Ukr/Eng

Нові коментарі

Нова тема   Відповісти
Автор Повідомлення
sergiyko.5 
VIP


З нами з: 25.02.16
Востаннє: 23.10.20
Повідомлень: 3611

2019-06-09 00:09  
Формула 1. Сезон 2019. Етап 7. Гран-Прі Канади. Кваліфікація (08.06.2019) 720p Ukr/Eng

Формула 1. Сезон 2019. Етап 7. Гран-Прі Канади. Кваліфікація (08.06.2019) 720p Ukr/Eng

Жанр: Перегони Формули 1
Країна: Канада
Телеканал: F1 TV
Коментатор: Максим Подзігун

Опис:
Кваліфікація сьомого етапу Гран-Прі Канади 2019 року.


Якість:

Відео:кодек: розмір кадру: 1280 х 720 бітрейт: 4000 кб/с
Аудіо # 1: мова: українська кодек: MP2 2.0 бітрейт: 192 кб/с
Аудіо # 2: мова: англійська кодек: 2.0 бітрейт: 90 кб/с
Тривалість:
01:34:34
Про файл:
General
Unique ID : 78409177462212851297121177559944647452 (0x3AFD0EEB5E1C473F5F25AD0DCC23D31C)
Complete name : G:\Torrents2\SPORT\Formula 1\F1.2019.Qualifying\F1.2019.07.Canadian.Qualifying.720p..Ukr.Eng.
Format :
Format version : Version 4
File size : 2.81 GiB
Duration : 1 h 34 min
Overall bit rate : 4 256 kb/s
Encoded date : UTC 2019-06-08 21:03:26
Writing application : v34.0.0 ('Sight and Seen') 64-bit
Writing library : libebml v1.3.7 + v1.5.0

Video
ID : 1
Format : AVC
Format/Info : Advanced Video Codec
Format profile : [email protected]
Format settings : CABAC / 4 Ref Frames
Format settings, CABAC : Yes
Format settings, Reference : 4 frames
Format settings, GOP : M=4, N=50
Codec ID : V_MPEG4/ISO/AVC
Duration : 1 h 34 min
Bit rate mode : Constant
Bit rate : 4 000 kb/s
Width : 1 280 pixels
Height : 720 pixels
Display aspect ratio : 16:9
Frame rate mode : Constant
Frame rate : 25.000 FPS
Color space : YUV
Chroma subsampling : 4:2:0
Bit depth : 8 bits
Scan type : Progressive
Bits/(Pixel*Frame) : 0.174
Stream size : 2.64 GiB (94%)
Language : English
Default : Yes
Forced : No

Audio #1
ID : 2
Format : MPEG Audio
Format version : Version 1
Format profile : Layer 2
Codec ID : A_MPEG/L2
Codec ID/Hint : MP2
Duration : 1 h 34 min
Bit rate mode : Constant
Bit rate : 192 kb/s
Channel(s) : 2 channels
Sampling rate : 48.0 kHz
Frame rate : 41.667 FPS (1152 SPF)
Compression mode : Lossy
Stream size : 130 MiB (5%)
Language : Ukrainian
Default : Yes
Forced : Yes

Audio #2
ID : 3
Format : LC
Format/Info : Advanced Audio Codec Low Complexity
Codec ID : A_AAC-2
Duration : 1 h 34 min
Bit rate : 61.7 kb/s
Channel(s) : 2 channels
Channel layout : L R
Sampling rate : 44.1 kHz
Frame rate : 43.066 FPS (1024 SPF)
Compression mode : Lossy
Stream size : 41.7 MiB (1%)
Language : English
Default : No
Forced : No
Скріншоти:



Зведення: sergiyko


 Трекер:    Зареєстрований   

Завантажити / скачати торрент



відео для новачків



 Зареєстрований:   2019-06-09 00:09
 Розмір:   2.81 GB 
 Оцінка:   9.9/10 (Голосів: 16)
   
forsage29 
Новенький


З нами з: 25.07.12
Востаннє: 18.10.20
Повідомлень: 20

2019-06-09 13:13  
Що ми будемо без Вас робити, sergiyko.5 ?
Дуже дякую!

petenko_rb 
Новенький


З нами з: 17.10.12
Востаннє: 14.10.20
Повідомлень: 4

2019-06-11 14:27  
Закиньте будь ласка гонку, дуже дякую наперед
sergiyko.5 
VIP


З нами з: 25.02.16
Востаннє: 23.10.20
Повідомлень: 3611

2019-06-11 14:31  
petenko_rb
А трохи нижче подивитись не можете?
Ви перший день на трекері?
Не чули про прикріплені релізи, пошук? Ні?

Я зробив реліз перегонів через півтори години після закінчення трансляції, але кожному покласти під ніс я не можу.

petenko_rb 
Новенький


З нами з: 17.10.12
Востаннє: 14.10.20
Повідомлень: 4

2019-06-12 00:22  
Прошу пардона) вибачайте щось засліпило, дякуєм за релізи
Ваш часовий пояс: GMT + 2 Години

Нова тема   Відповісти