Юний Шелдон (Сезони 1-2) / Young Sheldon (Seasons 1-2) (2017-2019) 1080p Ukr/Eng | sub Eng

Нові коментарі

Нова тема   Відповісти
Автор Повідомлення
Anonymous 







2019-06-08 09:51  
Юний Шелдон (Сезони 1-2) / Young Sheldon (Seasons 1-2) (2017-2019) 1080p Ukr/Eng | sub Eng

Юний Шелдон (Сезони 1-2) / Young Sheldon (Seasons 1-2) (2017-2019) 1080p Ukr/Eng | sub Eng


Жанр: комедія
Країна: США



Кінокомпанія: Chuck Lorre Productions, Warner Bros. Television
Режисер: Чак Чак Лоррі (Chuck Lorre), Стівен Моларо (Steven Molaro)
Актори: Аєн Армітідж (Iain Armitage), Зої Перрі (Zoe Perry), Ленс Барбер (Lance Barber) та інші.

Сюжет:
Ті, хто дивився "Теорію Великого Вибуху", знають про персонажа на ім'я Шелдон Купер. Отож, цей серіал про його дитинство.
Шелдону 9 років, а історія починається з того, що він іде навчатися до старшої школи.


Тривалість: 1 серія: ~20 хв. (цілком серій: 44)
Перелік серій
Сезон 1
01) Pilot
02) Rockets, Communists, and the Dewey Decimal System
03) Poker, Faith, and Eggs
04) A Therapist, a Comic Book, and a Breakfast Sausage
05) A Solar Calculator, a Game Ball, and a Cheerleader's Bosom
06) A Patch, a Modem, and a Zantac
07) A Brisket, Voodoo, and Cannonball Run
08) Cape Canaveral, Schrödinger's Cat, and Cyndi Lauper's Hair
09) Spock, Kirk, and Testicular Hernia
10) An Eagle Feather, a String Bean, and an Eskimo
11) Demons, Sunday School, and Prime Numbers
12) A Computer, a Plastic Pony, and a Case of Beer
13) A Sneeze, Detention, and Sissy Spacek
14) Potato Salad, a Broomstick, and Dad's Whiskey
15) Dolomite, Apple Slices, and a Mystery Woman
16) Killer Asteroids, Oklahoma, and a Frizzy Hair Machine
17) Jiu-Jitsu, Bubble Wrap, and Yoo-Hoo
18) A Mother, a Child, and a Blue Man's Backside
19) Gluons, Guacamole, and the Color Purple
20) A Dog, a Squirrel, and a Fish Named Fish
21) Summer Sausage, a Pocket Poncho, and Tony Danza
22) Vanilla Ice Cream, Gentleman Callers, and a Dinette Set
Сезон 2
01) A High-Pitched Buzz and Training Wheels
02) A Rival Prodigy and Sir Isaac Neutron
03) A Crisis of Faith and Octopus Aliens
04) A Financial Secret and Fish Sauce
05) A Research Study and Czechoslovakian Wedding Pastries
06) Seven Deadly Sins and a Small Carl Sagan
07) Carbon Dating and a Stuffed Raccoon
08) An 8-Bit Princess and a Flat Tire Genius
09) Family Dynamics and a Red Fiero
10) A Stunted Childhood and a Can of Fancy Mixed Nuts
11) A Race of Superhumans and a Letter to Alf
12) A Tummy Ache and a Whale of a Metaphor
13) A Nuclear Reactor and a Boy Called Lovey
14) David, Goliath, and a Yoo-Hoo from the Back
15) A Math Emergency and Perky Palms
16) A Loaf of Bread and a Grand Old Flag
17) Albert Einstein and the Story of Another Mary
18) A Perfect Score and a Bunsen Burner Marshmallow
19) A Political Campaign and a Candy Land Cheater
20) A Proposal and a Popsicle Stick Cross
21) A Broken Heart and a Crock Monster
22) A Swedish Science Thing and the Equation for Toast
Якість: [Amazon]
Відео:
кодек:
розмір кадру: 1920 х 1080
бітрейт: ~ 10 мб/с

Аудіо # 1:
мова: українська
переклад: багатоголосий закадровий | Paramount Comedy
кодек: 2.0
бітрейт: 192 кб/с
примітка: в серії 1x10 є більше хвилини без перекладу, так показує телеканал

Аудіо # 2:
мова: англійська
переклад: оригінал
кодек: E- 5.1
бітрейт: 640 кб/с

Субтитри:
мова: англійська
тип: програмні (м'які)
формат: *.srt
Info
General
Unique ID : 176632816330486810088874890820950050243 (0x84E23E361D828271C4EDAE639E9A45C3)
Complete name : F:\Support\series\Young Sheldon [, 1080p, Ukr, Eng]\Season 1\Young Sheldon. S01E17. Jiu-Jitsu, Bubble Wrap, and Yoo-Hoo.
Format :
Format version : Version 4
File size : 1.65 GiB
Duration : 20 min 31 s
Overall bit rate mode : Variable
Overall bit rate : 11.5 Mb/s
Encoded date : UTC 2019-06-02 18:51:36
Writing application : v34.0.0 ('Sight and Seen') 64-bit
Writing library : libebml v1.3.7 + v1.5.0

Video
ID : 1
Format : AVC
Format/Info : Advanced Video Codec
Format profile : [email protected]
Format settings : CABAC / 4 Ref Frames
Format settings, CABAC : Yes
Format settings, ReFrames : 4 frames
Codec ID : V_MPEG4/ISO/AVC
Duration : 20 min 31 s
Bit rate mode : Variable
Bit rate : 10.7 Mb/s
Maximum bit rate : 15.0 Mb/s
Width : 1 920 pixels
Height : 1 080 pixels
Display aspect ratio : 16:9
Frame rate mode : Constant
Frame rate : 23.976 (24000/1001) FPS
Color space : YUV
Chroma subsampling : 4:2:0
Bit depth : 8 bits
Scan type : Progressive
Bits/(Pixel*Frame) : 0.215
Stream size : 1.53 GiB (93%)
Language : English
Default : Yes
Forced : No
Color range : Limited
Color primaries : BT.709
Transfer characteristics : BT.709
Matrix coefficients : BT.709

Audio #1
ID : 2
Format : AC-3
Format/Info : Audio Coding 3
Commercial name : Dolby Digital
Codec ID : A_AC3
Duration : 20 min 31 s
Bit rate mode : Constant
Bit rate : 192 kb/s
Channel(s) : 2 channels
Channel layout : L R
Sampling rate : 48.0 kHz
Frame rate : 31.250 FPS (1536 SPF)
Bit depth : 16 bits
Compression mode : Lossy
Stream size : 28.2 MiB (2%)
Title : Paramount Comedy
Language : Ukrainian
Service kind : Complete Main
Default : Yes
Forced : No

Audio #2
ID : 3
Format : E-AC-3
Format/Info : Enhanced AC-3
Commercial name : Dolby Digital Plus
Codec ID : A_EAC3
Duration : 20 min 31 s
Bit rate mode : Constant
Bit rate : 640 kb/s
Channel(s) : 6 channels
Channel layout : L R C LFE Ls Rs
Sampling rate : 48.0 kHz
Frame rate : 31.250 FPS (1536 SPF)
Compression mode : Lossy
Stream size : 94.0 MiB (6%)
Language : English
Service kind : Complete Main
Default : No
Forced : No

Text
ID : 4
Format : UTF-8
Codec ID : S_TEXT/UTF8
Codec ID/Info : UTF-8 Plain Text
Duration : 20 min 0 s
Bit rate : 90 b/s
Count of elements : 469
Stream size : 13.2 KiB (0%)
Language : English
Default : No
Forced : No
Скріншоти

Українську доріжку взято з SD-релізів

Джерело: &
Особиста оцінка: 0 - не дивився





Бронзовий реліз (на рейтинг впливає 75% завантаженого)
 Трекер:    Зареєстрований   

Завантажити / скачати серіал українською



відео для новачків



 Зареєстрований:   2019-06-08 09:51
 Розмір:   61.16 GB 
 Оцінка серіалу:   8.5/10 (Голосів: 13)
   
ira_usyk 
Новенький


З нами з: 05.05.16
Востаннє: 30.10.20
Повідомлень: 2

2019-07-12 12:23  
додайтесь хтось на роздачу, будь ласка.
дякую!)

Anonymous 







2019-07-12 12:56  
ira_usyk написано:
додайтесь хтось на роздачу, будь ласка.
дякую!)

У вас проблема з рейтингом (співвідношення розданого до завантаженого), його треба мати хоча б 0.15, щоб мати можливість нормально завантажувати. Вантажте авторські і золоті роздачі та роздавайте вже завантажені роздачі.

ira_usyk 
Новенький


З нами з: 05.05.16
Востаннє: 30.10.20
Повідомлень: 2

2019-07-12 13:23  
Anonymous
так, добре) спасибі!

0mage0 
VIP


З нами з: 06.10.15
Востаннє: 04.12.20
Повідомлень: 709

2019-09-01 09:11  
Цікавий серіал, дуже смішний. Причому окрім Шелдона є купа чудових персонажів. Одна мама чого варта.
Цитата:
- Вони горітимуть у пеклі. Тому, що бог їх любить.

А Шелдон просто гімнюк. Хоча іноді кумедний.
Купити комп'ютер щоб сортувати список ворогів це сильно Happy

Soundform 
Свій


З нами з: 21.11.13
Востаннє: 28.11.20
Повідомлень: 69

2020-06-12 11:32  
Чи планується переклад 3 сезону? Я так розумію він фінальний, зйомки вже закінчили.
https://www.imdb.com/title/tt6226232/episodes?season=3

Anonymous 







2020-06-12 11:35  
Soundform
Дуже ймовірно, що канал його покаже, але чекати найближчим часом не варто.

Valera_Ventor 
Свій


З нами з: 15.12.12
Востаннє: 28.11.20
Повідомлень: 55

2020-07-09 23:29  
Soundform
Буде 4-й сезон, восени планують показувати. Він скоріше за все буде останнім.

Okraila 
Частий відвідувач


З нами з: 04.11.20
Востаннє: 04.12.20
Повідомлень: 34

2020-11-17 14:23  
Якщо хто хоче, можу озвучити сезон 3 і 4
Soundform 
Свій


З нами з: 21.11.13
Востаннє: 28.11.20
Повідомлень: 69

2020-11-17 14:46  
Okraila
А десь є вже 4й сезон в оригіналі? Саме збирався дивитися 3 та 4.
Українською звісно теж було б добре Happy

Okraila 
Частий відвідувач


З нами з: 04.11.20
Востаннє: 04.12.20
Повідомлень: 34

2020-11-26 13:15  
На піратських сайтах в оригіналі можна знайти запросто. Не можу скидати посилання, адже це суперечить правилам трекера
Ваш часовий пояс: GMT + 2 Години

Нова тема   Відповісти