Чорне Дзеркало (Сезон 5) / Black Mirror (Season 5) (2019) 1080p 2xUkr/Eng | Sub Eng

Нові коментарі

Нова тема   Відповісти
Автор Повідомлення
Anonymous 







2019-06-08 01:14  
Чорне Дзеркало (Сезон 5) / Black Mirror (Season 5) (2019) 1080p 2xUkr/Eng | Sub Eng

Чорне Дзеркало (Сезон 5) / Black Mirror (Season 5) (2019) 1080p 2xUkr/Eng | Sub Eng


Жанр: драма, фантастика, трилер
Країна: Великобританія
Кінокомпанія: Zeppotron, Channel 4, Netflix
Актори: Джессі Племонс, Крістін Міліоті, Джиммі Сімпсон та інші

Сюжет:
Британський фантастичний телесеріал, створений за сценарієм Чарлі Брукера. Серії не пов'язані між собою ні сюжетом, ні акторами, ні часом або місцем. За словами Брукера, всі сюжети об'єднує лише сатира на той образ життя, що поширений в сучасному суспільстві. Наскрізна тема - вплив інформаційних технологій на людські відносини.

Тривалість: 1 серія: ~ 60:00 (цілком серій: 3)
Перелік серій
1 серія: Striking Vipers
2 серія: Smithereens
3 серія: Rachel, Jack and Ashley Too
Якість:
Відео:
кодек:
розмір кадру: 1920 x 960 / 1920x872 *
бітрейт: 15 541 кб/с

* 2 та 3 серії.

Аудіо # 1:
мова: українська
переклад: багатоголосий закадровий | DniproFilm
кодек: 5.1
бітрейт: 384 кб/с

Аудіо # 2:
мова: українська
переклад: професійний багатоголосий закадровий | НеЗупиняйПродакшн
кодек: 5.1
бітрейт: 640 кб/с

Аудіо # 3:
мова: англійська
переклад: оригінал
кодек: E-AC-3 5.1
бітрейт: 640 кб/с

Субтитри # 1:
мова: англійська (SDH),
тип: програмні (м'які)
формат: *.srt


Info
Код:
General
Unique ID                                : 164804650115277270527715689113627796563 (0x7BFC389797D674A5384144E54C022453)
Complete name                            : F:\Video\Black Mirror (2019) - Season 5 - 1080p [2xUKR_ENG] [Hurtom]\Black Mirror (2019) - S05E01 - Striking Vipers - 1080p [2xUKR_ENG].
Format                                   :
Format version                           : Version 4
File size                                : 7.43 GiB
Duration                                 : 1 h 1 min
Overall bit rate                         : 17.2 Mb/s
Movie name                               : Black Mirror (2019) - S05E01 - Striking Vipers
Encoded date                             : UTC 2019-06-09 16:36:26
Writing application                      : v20.0.0 ('I Am The Sun') 64-bit
Writing library                          : libebml v1.3.5 + v1.4.8
Cover                                    : Yes
Attachments                              : Cover.jpg

Video
ID                                       : 1
Format                                   : AVC
Format/Info                              : Advanced Video Codec
Format profile                           : [email protected]
Format settings                          : CABAC / 4 Ref Frames
Format settings, CABAC                   : Yes
Format settings, RefFrames               : 4 frames
Codec ID                                 : V_MPEG4/ISO/AVC
Duration                                 : 1 h 1 min
Bit rate                                 : 15.5 Mb/s
Width                                    : 1 920 pixels
Height                                   : 960 pixels
Display aspect ratio                     : 2.000
Frame rate mode                          : Constant
Frame rate                               : 25.000 FPS
Color space                              : YUV
Chroma subsampling                       : 4:2:0
Bit depth                                : 8 bits
Scan type                                : Progressive
Bits/(Pixel*Frame)                       : 0.337
Stream size                              : 6.71 GiB (90%)
Title                                    : Black Mirror (2019) - S05E01 - Striking Vipers
Writing library                          : core 152 r2851kMod ba24899
Encoding settings                        : cabac=1 / ref=4 / deblock=1:-3:-3 / analyse=0x3:0x133 / me=umh / subme=10 / psy=1 / fade_compensate=0.00 / psy_rd=1.00:0.00 / mixed_ref=1 / me_range=48 / chroma_me=1 / trellis=2 / 8x8dct=1 / cqm=0 / deadzone=21,11 / fast_pskip=0 / chroma_qp_offset=-2 / threads=12 / lookahead_threads=2 / sliced_threads=0 / nr=0 / decimate=0 / interlaced=0 / bluray_compat=0 / constrained_intra=0 / bframes=8 / b_pyramid=2 / b_adapt=2 / b_bias=0 / direct=3 / weightb=1 / open_gop=0 / weightp=2 / keyint=250 / keyint_min=25 / scenecut=40 / intra_refresh=0 / rc=crf / mbtree=0 / crf=17.0000 / qcomp=0.60 / qpmin=0 / qpmax=69 / qpstep=4 / ip_ratio=1.30 / pb_ratio=1.20 / aq=3:0.80
Language                                 : English
Default                                  : Yes
Forced                                   : No

Audio #1
ID                                       : 2
Format                                   : AC-3
Format/Info                              : Audio Coding 3
Commercial name                          : Dolby Digital
Codec ID                                 : A_AC3
Duration                                 : 1 h 1 min
Bit rate mode                            : Constant
Bit rate                                 : 384 kb/s
Channel(s)                               : 6 channels
Channel layout                           : L R C LFE Ls Rs
Sampling rate                            : 48.0 kHz
Frame rate                               : 31.250 FPS (1536 SPF)
Bit depth                                : 16 bits
Compression mode                         : Lossy
Delay relative to video                  : 1 s 0 ms
Stream size                              : 169 MiB (2%)
Title                                    : БЗ - DniproFilm
Language                                 : Ukrainian
Service kind                             : Complete Main
Default                                  : Yes
Forced                                   : Yes

Audio #2
ID                                       : 3
Format                                   : AC-3
Format/Info                              : Audio Coding 3
Commercial name                          : Dolby Digital
Codec ID                                 : A_AC3
Duration                                 : 1 h 1 min
Bit rate mode                            : Constant
Bit rate                                 : 640 kb/s
Channel(s)                               : 6 channels
Channel layout                           : L R C LFE Ls Rs
Sampling rate                            : 48.0 kHz
Frame rate                               : 31.250 FPS (1536 SPF)
Bit depth                                : 16 bits
Compression mode                         : Lossy
Stream size                              : 283 MiB (4%)
Title                                    : БЗ - НеЗупиняйПродакшн
Language                                 : Ukrainian
Service kind                             : Complete Main
Default                                  : No
Forced                                   : No

Audio #3
ID                                       : 4
Format                                   : E-AC-3
Format/Info                              : Enhanced AC-3
Commercial name                          : Dolby Digital Plus
Codec ID                                 : A_EAC3
Duration                                 : 1 h 1 min
Bit rate mode                            : Constant
Bit rate                                 : 640 kb/s
Channel(s)                               : 6 channels
Channel layout                           : L R C LFE Ls Rs
Sampling rate                            : 48.0 kHz
Frame rate                               : 31.250 FPS (1536 SPF)
Compression mode                         : Lossy
Stream size                              : 283 MiB (4%)
Title                                    : Original
Language                                 : English
Service kind                             : Complete Main
Default                                  : No
Forced                                   : No

Text
ID                                       : 5
Format                                   : UTF-8
Codec ID                                 : S_TEXT/UTF8
Codec ID/Info                            : UTF-8 Plain Text
Duration                                 : 1 h 0 min
Bit rate                                 : 44 b/s
Count of elements                        : 743
Stream size                              : 20.0 KiB (0%)
Title                                    : SDH
Language                                 : English
Default                                  : No
Forced                                   : No

Menu
00:00:05.000                             : en:Intro start
00:00:25.520                             : en:Intro end
Світлини







Джерело: &
Особиста оцінка: 10 - без зайвих вагань рекомендую всім!


Авторський реліз (завантажувати можна без реєстрації)
 Трекер:    Зареєстрований   

Завантажити / скачати серіал українською



відео для новачків



 Зареєстрований:   2019-06-09 21:54
 Розмір:   22.55 GB 
 Оцінка серіалу:   10/10 (Голосів: 9)
   
Anonymous 







2019-06-09 21:56  
Додав доріжки від НеЗупиняйПродакшн.
DniproFilm та НеЗупиняйПродакшн Велике спасибі за озвучення!

armogun 
Попереджень: 1
Попереджень: 1 


З нами з: 04.05.13
Востаннє: 16.06.19
Повідомлень: 492

2019-06-10 22:58  
Не може бути. Ааааааааапа,
Ваш часовий пояс: GMT + 2 Години

Нова тема   Відповісти