Паломництво / Pilgrimage (2017) 1080р Eng | sub Ukr

Нові коментарі

Нова тема   Відповісти
Останній раз роздавалося Muravas (2020-11-21)
Автор Повідомлення
СиницяБандерівка 
Свій


З нами з: 07.03.15
Востаннє: 07.11.20
Повідомлень: 51

2019-06-07 21:55  
Паломництво / Pilgrimage (2017) 1080р Eng | sub Ukr

Паломництво / Pilgrimage (2017) 1080р Eng | sub Ukr


Жанр: драма, пригодницький, трилер
Країна: Ірландія, Бельгія, США



Кінокомпанія: Savage Productions, Screen Ireland
Режисер: Брендан Малдоуні
Актори: Том Голанд, Джон Бернтал, Річард Армітедж та ін.

Сюжет:
Ірландія, 1209 рік. Група з кількох монахів вирушає у паломництво до Риму. Для цього вони мають мають дістатися іншого кінця острова й сісти на корабель. Але на цій землі століттями не вщухають війни між племенами, до того ж, острів знаходиться під владою норманських завойовників. Ченці супроводжують до Папського престолу найвизначнішу Реліквію свого монастиря - камінь, що здатний викликати гнів Господній. Разом з ними подорожує і німий чоловік, що жив при монастирі кілька років і володіє неабиякою силою. Вона стане ченцям у нагоді, коли ті, хто мав би захищати Реліквію, захочуть забрати її.


Тривалість: 01:36:02
Якість:
Відео:
кодек:
розмір кадру: 1920 х 800
бітрейт: 2050 кб/с

Аудіо:
мова: англійська, ірландська, французька, латинь
переклад: оригінал
кодек: 2.0
бітрейт: 136 кб/с

Субтитри:
мова: українська
тип: програмні (м'які)
формат: *.srt
Скріншоти



Info

Format : MPEG-4
Format profile : Base Media
Codec ID : isom (isom/iso2/avc1/mp41)
File size : 1.47 GiB
Duration : 1 h 36 min
Overall bit rate : 2 194 kb/s
Writing application : Lavf57.48.101

Video
ID : 1
Format : AVC
Format/Info : Advanced Video Codec
Format profile : [email protected]
Format settings : CABAC / 4 Ref Frames
Format settings, CABAC : Yes
Format settings, ReFrames : 4 frames
Codec ID : avc1
Codec ID/Info : Advanced Video Coding
Duration : 1 h 36 min
Bit rate : 2 050 kb/s
Width : 1 920 pixels
Height : 800 pixels
Display aspect ratio : 2.40:1
Frame rate mode : Constant
Frame rate : 23.976 (24000/1001) FPS
Color space : YUV
Chroma subsampling : 4:2:0
Bit depth : 8 bits
Scan type : Progressive
Bits/(Pixel*Frame) : 0.056
Stream size : 1.37 GiB (93%)
Writing library : core 148
Encoding settings : cabac=1 / ref=4 / deblock=1:-1:-1 / analyse=0x3:0x133 / me=umh / subme=9 / psy=1 / psy_rd=1.00:0.15 / mixed_ref=1 / me_range=24 / chroma_me=1 / trellis=2 / 8x8dct=1 / cqm=0 / deadzone=21,11 / fast_pskip=0 / chroma_qp_offset=-3 / threads=12 / lookahead_threads=1 / sliced_threads=0 / nr=0 / decimate=1 / interlaced=0 / bluray_compat=0 / constrained_intra=0 / bframes=3 / b_pyramid=2 / b_adapt=2 / b_bias=0 / direct=3 / weightb=1 / open_gop=0 / weightp=2 / keyint=250 / keyint_min=23 / scenecut=40 / intra_refresh=0 / rc_lookahead=60 / rc=2pass / mbtree=1 / bitrate=2050 / ratetol=1.0 / qcomp=0.60 / qpmin=0 / qpmax=69 / qpstep=4 / cplxblur=20.0 / qblur=0.5 / vbv_maxrate=31250 / vbv_bufsize=31250 / nal_hrd=none / filler=0 / ip_ratio=1.40 / aq=1:1.00
Codec configuration box : avcC

Audio
ID : 2
Format : LC
Format/Info : Advanced Audio Codec Low Complexity
Codec ID : mp4a-40-2
Duration : 1 h 36 min
Bit rate mode : Constant
Bit rate : 138 kb/s
Channel(s) : 2 channels
Channel layout : L R
Sampling rate : 48.0 kHz
Frame rate : 46.875 FPS (1024 SPF)
Compression mode : Lossy
Stream size : 94.5 MiB (6%)
Default : Yes
Alternate group : 1
Джерело:
Особиста оцінка: 8 - мені сподобалося


Золотий реліз (завантажене не впливає на рейтинг)
 Трекер:    Зареєстрований   

Завантажити / скачати фільм українською



відео для новачків



 Зареєстрований:   2019-06-07 21:55
 Розмір:   1.47 GB 
 Оцінка фільму:   7.8/10 (Голосів: 4)
   
ivan vyrvyvuho 
VIP


З нами з: 19.08.12
Востаннє: 27.11.20
Повідомлень: 1176

2019-06-09 07:39  
СиницяБандерівка написано:
Паломництво / Pilgrimage (2017) Eng, Irish, French, Latin | sub Ukr

СиницяБандерівка написано:

Аудіо:
мова: англійська
переклад: оригінал
кодек: 2.0
бітрейт: 136 кб/с

Мало б бути навпаки:
Паломництво / Pilgrimage (2017) Eng | sub Ukr
Аудіо:
мова: англійська, ірландська, французька, латинь
переклад: оригінал
кодек: 2.0
бітрейт: 136 кб/с

Ваш часовий пояс: GMT + 2 Години

Нова тема   Відповісти