Чорне Дзеркало (Сезон 5) / Black Mirror (Season 5) (2019)

Нові коментарі

Нова тема   Відповісти
Автор Повідомлення
DniproFilm 
VIP


З нами з: 10.10.18
Востаннє: 16.06.19
Повідомлень: 251

2019-06-07 19:36  
Чорне Дзеркало (Сезон 5) / Black Mirror (Season 5) (2019)

Чорне Дзеркало (Сезон 5) / Black Mirror (Season 5) (2019)


Жанр: драма, фантастика, трилер
Країна: Велика Британія



Кінокомпанія / телеканал: Zeppotron, Channel 4, Netflix

Автор ідеї: Чарлі Брукер
Актори: Джессі Племонс, Крістін Міліоті, Джиммі Сімпсон та інші

Сюжет:
Британський фантастичний телесеріал, створений за сценарієм Чарлі Брукера. Серії не пов'язані між собою ні сюжетом, ні акторами, ні часом або місцем. За словами Брукера, всі сюжети об'єднує лише сатира на той образ життя, що поширений в сучасному суспільстві. Наскрізна тема - вплив інформаційних технологій на людські відносини.


Тривалість: 1 серія: ~ 60 хв. (цілком серій: 3)
Перелік серій

1. Striking Vipers
2. Smithereens
3. Rachel, Jack and Ashley Too
Якість:
Відео:
кодек:
розмір кадру: 720x360 / 704x320 *
бітрейт: ~1800 кб/с

* 2 та 3 серії.

Аудіо # 1:
мова: українська
переклад: багатоголосий закадровий
кодек: 5.1
бітрейт: 384 кб/с

Джерело озвучення:
DniproFilm

РЕКЛАМА ВІДСУТНЯ!
Info

Video
ID : 0
Format : MPEG-4 Visual
Format profile : Advanced [email protected]
Format settings : BVOP2
Format settings, BVOP : 2
Format settings, QPel : No
Format settings, GMC : No warppoints
Format settings, Matrix : Default (H.263)
Muxing mode : Packed bitstream
Codec ID :
Codec ID/Hint :
Duration : 1 h 1 min
Bit rate : 1 766 kb/s
Width : 720 pixels
Height : 360 pixels
Display aspect ratio : 2.000
Frame rate : 25.000 FPS
Color space : YUV
Chroma subsampling : 4:2:0
Bit depth : 8 bits
Scan type : Progressive
Compression mode : Lossy
Bits/(Pixel*Frame) : 0.273
Stream size : 776 MiB (82%)
Writing library : 67

Audio
ID : 1
Format : AC-3
Format/Info : Audio Coding 3
Commercial name : Dolby Digital
Codec ID : 2000
Duration : 1 h 1 min
Bit rate mode : Constant
Bit rate : 384 kb/s
Channel(s) : 6 channels
Channel positions : Front: L C R, Side: L R, LFE
Sampling rate : 48.0 kHz
Frame rate : 31.250 FPS (1536 SPF)
Bit depth : 16 bits
Compression mode : Lossy
Stream size : 169 MiB (18%)
Alignment : Aligned on interleaves
Interleave, duration : 40 ms (1.00 video frame)
Interleave, preload duratio : 512 ms
Service kind : Complete Main
Скріншоти




Авторський реліз (завантажувати можна без реєстрації)
 Трекер:    Зареєстрований   

Завантажити / скачати серіал українською



відео для новачків



 Зареєстрований:   2019-06-07 19:36
 Розмір:   2.95 GB 
 Оцінка серіалу:   9.1/10 (Голосів: 16)
   
Pegass 
VIP


З нами з: 17.12.09
Востаннє: 16.06.19
Повідомлень: 904

2019-06-08 15:31  
DniproFilm
Не правильне посилання IMDb. Чомусь посилається на серіал "Лютер"

tm 
Новенький


З нами з: 17.03.09
Востаннє: 17.06.19
Повідомлень: 13

2019-06-08 17:12  
Провальний сезон, у порівнянні з попередніми - нема що дивитись.
spyukraine 
Новенький


З нами з: 02.04.12
Востаннє: 15.06.19
Повідомлень: 14

2019-06-09 12:25  
Картинка гарна, гра акторів хороша, перебіг подій не затягнутий - - - але не за це ми любимо "Чорне дзеркало" - за непередбачуваність, сміливість у фантазіях про майбутнє, застереження про деструктивні процеси які вже почали відбуватись - - в цьому сезоні ви цього не побачите. Серії банальні, передбачувані, посил авторів дуже простенький і не викликає захоплення. Одне слово - БАНАЛЬНО.
Один раз подивитись можна, але не чекайте що цей сезон хоча б на 30% буде настільки цікавий як перші 3 (четвертий не дивився).
[spoiler]1 серія - дуже здивувало чому головні герої не випробовують інших персонажів.
2 серія - абсурд, ти вбив свою дівчину, тому що віідволікся на телефон, і дзвониш до автора додатку - це ж абсурд.. З таким самим успіхом - людина яка збила дитину у стані алкогольного спяніння, може взяти заручника і дзвонити до директора лікеро-горілчаного заводу...
3 серія - тематика для тінейджерів, попвиконавець і наркотики, самотня дівчинка після переїзду без друзів і матері - кількість шаблонів зашкалює - і викликає підозру що тепер Чорне дзеркало знімають для такої аудиторії як ГГ в 3-ій серії(([/spoiler]

Оповідач 
Поважний учасник


З нами з: 13.03.11
Востаннє: 16.06.19
Повідомлень: 206

2019-06-11 12:26  
Я вам скажу так перша серія - абсурд.
Ніхто не дозволить секс у віртуальному файтингу,це смішно.Таке продаватимуть у спеціальному продукті і за окремі гроші
Додано через 47 секунд:

А,і ваш спойлер не працює як спойлер)

igor911 
Модератор відео


З нами з: 18.01.08
Востаннє: 16.06.19
Повідомлень: 12654

2019-06-11 13:56  
Pegass написано:
Не правильне посилання IMDb

виправив

Aleks_Cat 
Частий відвідувач


З нами з: 14.04.14
Востаннє: 16.06.19
Повідомлень: 25

2019-06-12 21:17  
Варіанти закінченнь в стилістиці Чорного дзеркала:

1 серія - гг заходить до своєї кімнати і бачить, що у його гру грає малолітній син;
2 серія - коли в кінці стрічки показують, як люди відволікаються на повідомлення, знову стається така сама аварія;
3 серія - ніяких варіантів - дуже гарна, світла серія з гумором та Майлі Сайрус.

Сенс 5 сезону, на мою думку, полягає в тому, щоб показати, що Чорне дзеркало - це насправді наші чорні душі, які бажають крові та переповнені лайна, а в житті все може бути й не так погано.

Ваш часовий пояс: GMT + 2 Години

Нова тема   Відповісти