Чорне Дзеркало (Сезон 5) / Black Mirror (Season 5) (2019) 1080p Ukr/Eng

Нові коментарі

Нова тема   Відповісти
Автор Повідомлення
DniproFilm 
VIP


З нами з: 10.10.18
Востаннє: 07.12.19
Повідомлень: 301

2019-06-07 18:36  
Чорне Дзеркало (Сезон 5) / Black Mirror (Season 5) (2019) 1080p Ukr/Eng

Чорне Дзеркало (Сезон 5) / Black Mirror (Season 5) (2019) 1080p Ukr/Eng


Жанр: драма, фантастика, трилер
Країна: Велика Британія



Кінокомпанія / телеканал: Zeppotron, Channel 4, Netflix

Автор ідеї: Чарлі Брукер
Актори: Джессі Племонс, Крістін Міліоті, Джиммі Сімпсон та інші

Сюжет:
Британський фантастичний телесеріал, створений за сценарієм Чарлі Брукера. Серії не пов'язані між собою ні сюжетом, ні акторами, ні часом або місцем. За словами Брукера, всі сюжети об'єднує лише сатира на той образ життя, що поширений в сучасному суспільстві. Наскрізна тема - вплив інформаційних технологій на людські відносини.


Тривалість: 1 серія: ~ 60 хв. (цілком серій: 3)
Перелік серій

1. Striking Vipers
2. Smithereens
3. Rachel, Jack and Ashley Too
Якість:
Відео:
кодек:
розмір кадру: 1920x960 / 1920x872 *
бітрейт: ~7000 кб/с

* 2 та 3 серії.

Аудіо # 1:
мова: українська
переклад: багатоголосий закадровий
кодек: 5.1
бітрейт: 384 кб/с

Аудіо # 2:
мова: англійська
переклад: оригінал
кодек: 5.1
бітрейт: 640 кб/с

Джерело озвучення:
DniproFilm

РЕКЛАМА ВІДСУТНЯ!
Info

Video
ID : 1
Format : AVC
Format/Info : Advanced Video Codec
Format profile : [email protected]
Format settings : CABAC / 4 Ref Frames
Format settings, CABAC : Yes
Format settings, ReFrames : 4 frames
Codec ID : V_MPEG4/ISO/AVC
Duration : 1 h 1 min
Bit rate : 6 819 kb/s
Width : 1 920 pixels
Height : 960 pixels
Display aspect ratio : 2.000
Frame rate mode : Constant
Frame rate : 25.000 FPS
Color space : YUV
Chroma subsampling : 4:2:0
Bit depth : 8 bits
Scan type : Progressive
Bits/(Pixel*Frame) : 0.148
Stream size : 2.93 GiB (87%)
Language : English
Default : Yes
Forced : No
Color range : Limited
Color primaries : BT.709
Transfer characteristics : BT.709
Matrix coefficients : BT.709

Audio #1
ID : 2
Format : AC-3
Format/Info : Audio Coding 3
Commercial name : Dolby Digital
Codec ID : A_AC3
Duration : 1 h 1 min
Bit rate mode : Constant
Bit rate : 384 kb/s
Channel(s) : 6 channels
Channel positions : Front: L C R, Side: L R, LFE
Sampling rate : 48.0 kHz
Frame rate : 31.250 FPS (1536 SPF)
Bit depth : 16 bits
Compression mode : Lossy
Stream size : 169 MiB (5%)
Title : DniproFilm
Language : Ukrainian
Service kind : Complete Main
Default : Yes
Forced : No

Audio #2
ID : 3
Format : AC-3
Format/Info : Audio Coding 3
Commercial name : Dolby Digital
Codec ID : A_AC3
Duration : 1 h 1 min
Bit rate mode : Constant
Bit rate : 640 kb/s
Channel(s) : 6 channels
Channel positions : Front: L C R, Side: L R, LFE
Sampling rate : 48.0 kHz
Frame rate : 31.250 FPS (1536 SPF)
Bit depth : 16 bits
Compression mode : Lossy
Stream size : 281 MiB (8%)
Language : English
Service kind : Complete Main
Default : No
Forced : No
Скріншоти




Авторський реліз (завантажувати можна без реєстрації)
 Трекер:    Зареєстрований   

Завантажити / скачати серіал українською



відео для новачків



 Зареєстрований:   2019-06-07 18:36
 Розмір:   10.86 GB 
 Оцінка серіалу:   9.9/10 (Голосів: 14)
   
Cartwright 
Поважний учасник


З нами з: 23.03.13
Востаннє: 08.12.19
Повідомлень: 248

2019-06-07 18:38  
Оце так бомба. Неочікувано. Ще і звук гарний, як раніше.
Lyolic 
VIP


З нами з: 04.08.09
Востаннє: 09.12.19
Повідомлень: 396

2019-06-08 09:22  
DniproFilm написано:
Країна: Великобританія

https://uk.wikipedia.org/wiki/%D0%92%D0%B5%D0%BB%D0%B8%D0%BA%D0%B0_%D0%91%D1%80%D0%B8%D1%82%D0%B0%D0%BD%D1%96%D1%8F

В озвучці також валом кацапізмів? )

0mage0 
VIP


З нами з: 06.10.15
Востаннє: 08.12.19
Повідомлень: 582

2019-10-04 21:26  
Перший та третій епізоди нормас, а от другий взагалі якась маячня. Я так і не зрозумів, що він хотів від власника мережі.
Дякую за озвучку, якби ще у третьому епізоді героїня не "втратила свідомість" та не "знаходилася у комі", а знепритомніла та перебувала б у комі, було б чудово.

Ваш часовий пояс: GMT + 2 Години

Нова тема   Відповісти