Танцівник диско / Disco Dancer / डिस्को डांसर (1982) 1080p Ukr/Hin

Нові коментарі

Нова тема   Відповісти
Автор Повідомлення
Anonymous 







2019-06-06 20:35  
Танцівник диско / Disco Dancer / डिस्को डांसर (1982) 1080p Ukr/Hin

Танцівник диско / Disco Dancer / डिस्को डांसर (1982) 1080p Ukr/Hin


Жанр: драма, музичний, романтичний
Країна: Індія



Кінокомпанія: Film City, Goregaon, Mumbai, Maharashtra, India
Актори: Мітхун Чакраборті, Ом Шивпурі, Гіта Сиддхарт, Кім Яшпал, Калпана Айер.

Сюжет:
Аніл з самого дитинства був вуличним співаком, який виступав разом зі своїм дядьком. Але одного разу його сім'я зіткнулася з багатієм Обероєм, який звинувачує його матір у крадіжці, і жінка сідає у в'язницю. Після того як вона вийшла з в'язниці, Аніл з матір'ю покидають рідне місто. Його любов до музики згодом зробила його відомим співаком, і він дістав прізвисько Джиммі. Одного разу, будучи вже досить відомим виконавцем, Джиммі познайомився з Ритою, яка виявилася дочкою того самого Обероя. Дізнавшись про те, що дочка зустрічається з Джиммі, Оберой вирішує перешкодити їх стосункам і зруйнувати кар'єру Джиммі.


Тривалість: 02:14:45
Якість:
Відео:
кодек:
розмір кадру: 1920 х 1080
бітрейт: 3000 кб/с

Аудіо # 1:
мова: українська
переклад: багатоголосий закадровий | компанія КіТ
кодек: 2.0
бітрейт: 192 кб/с

Аудіо # 2:
мова: гінді
переклад: оригінал
кодек: 2.0
бітрейт: 128 кб/с
Info
Video
ID : 1
Format : AVC
Format/Info : Advanced Video Codec
Format profile : [email protected]
Format settings, CABAC : Yes
Format settings, RefFrames : 4 frames
Codec ID : V_MPEG4/ISO/AVC
Duration : 2 h 14 min
Bit rate : 3 000 kb/s
Width : 1 920 pixels
Height : 1 080 pixels
Display aspect ratio : 16:9
Frame rate mode : Variable
Frame rate : 25.000 FPS
Color space : YUV
Chroma subsampling : 4:2:0
Bit depth : 8 bits
Scan type : Progressive
Bits/(Pixel*Frame) : 0.058
Stream size : 2.83 GiB (90%)
Writing library : core 157
Encoding settings : cabac=1 / ref=2 / deblock=1:-1:-1 / analyse=0x1:0x111 / me=esa / subme=9 / psy=1 / psy_rd=1.00:0.15 / mixed_ref=1 / me_range=16 / chroma_me=1 / trellis=1 / 8x8dct=0 / cqm=0 / deadzone=21,11 / fast_pskip=1 / chroma_qp_offset=-3 / threads=24 / lookahead_threads=2 / sliced_threads=0 / nr=0 / decimate=1 / interlaced=0 / bluray_compat=0 / constrained_intra=0 / bframes=4 / b_pyramid=2 / b_adapt=1 / b_bias=0 / direct=1 / weightb=1 / open_gop=0 / weightp=2 / keyint=125 / keyint_min=63 / scenecut=0 / intra_refresh=0 / rc_lookahead=40 / rc=2pass / mbtree=1 / bitrate=3000 / ratetol=1.0 / qcomp=0.60 / qpmin=0 / qpmax=69 / qpstep=4 / cplxblur=20.0 / qblur=0.5 / ip_ratio=1.40 / aq=1:1.00
Language : English
Default : Yes
Forced : No

Audio #1
ID : 2
Format : AC-3
Format/Info : Audio Coding 3
Format settings, Endianness : Big
Codec ID : A_AC3
Duration : 2 h 14 min
Bit rate mode : Constant
Bit rate : 192 kb/s
Channel(s) : 2 channels
Channel positions : Front: L R
Sampling rate : 48.0 kHz
Frame rate : 31.250 FPS (1536 SPF)
Bit depth : 16 bits
Compression mode : Lossy
Delay relative to video : -80 ms
Stream size : 185 MiB (6%)
Language : Ukrainian
Service kind : Complete Main
Default : Yes
Forced : No

Audio #2
ID : 3
Format :
Format/Info : Advanced Audio Codec
Format profile : LC
Codec ID : A_AAC
Duration : 2 h 14 min
Bit rate : 128 kb/s
Channel(s) : 2 channels
Channel positions : Front: L R
Sampling rate : 48.0 kHz
Frame rate : 46.875 FPS (1024 SPF)
Compression mode : Lossy
Delay relative to video : -16 ms
Stream size : 123 MiB (4%)
Language : Hindi
Default : No
Forced : No
Скріншоти








Про ріп: скоріш за все це апскей з ДВД9, але на жаль звести до нього доріжку не виходить, тому викладаю те що є.
Джерело:
Особиста оцінка: 8 - мені сподобалося


Срібний реліз (на рейтинг впливає 50% завантаженого)
 Трекер:    Зареєстрований   

Завантажити / скачати фільм українською



відео для новачків



 Зареєстрований:   2019-06-06 20:35
 Розмір:   3.13 GB 
 Оцінка фільму:   10/10 (Голосів: 8)
   
Інші релізи
anоnymous1 
Новенький


З нами з: 04.06.19
Востаннє: 28.06.19
Повідомлень: 12

2019-06-06 21:10  
та ж куди? я тільки взявся глядіти що там
Anonymous 







2019-06-06 21:20  
anоnymous1 написано:
та ж куди? я тільки взявся глядіти що там

Та це, як альтернатива, якщо з двд нічого не вийде.

kryk-v.ya. 
Попереджень: 1
Попереджень: 1 


З нами з: 14.02.14
Востаннє: 19.09.20
Повідомлень: 2236

2019-06-06 21:31  
Anonymous
класний фільм і відео супер...все добре.

Ваш часовий пояс: GMT + 2 Години

Нова тема   Відповісти