Доктор Хто (Сезон 6) / Doctor Who (Season 6) (2011) 720p Ukr/Eng | Sub Eng

Нові коментарі

Нова тема   Відповісти
Автор Повідомлення
Anonymous 







2019-06-06 18:05  
Доктор Хто (Сезон 6) / Doctor Who (Season 6) (2011) 720p Ukr/Eng | Sub Eng



Жанр: пригодницький, драма, сімейний
Країна: Велика Британія



Кінокомпанія: BBC
Режисер: Грем Харпер, Ерос Лін, Дуглас Маккінон.
Актори: Мет Сміт, Карен Гілан, Артур Дарвіл, Іен МакНіс, Алекс Кінгстон, Саймон Фішер-Бекер.

Сюжет:
За сюжетом, Доктор Хто - легендарний міжгалактичний герой, знаменитий шукач пригод і мандрівник крізь простір і час. У тих далеких світах, звідки він прибув, перед ним схиляються і називають Володарем часу. Його місія - врятувати людську расу від інопланетян, які готуються захопити Землю та знищити людей. Прибульці вже серед нас, вони розсіялися серед людей, але їх підступному задумом ще можна перешкодити.


Тривалість: 1 серія: 50хв (цілком серій: 14 з 14)
Перелік серій
00. A Christmas Carol / Різдвяна пісня
01. The Impossible Astronaut / Неможливий астронавт
02. Day of The Moon Part / День місяця
03. The Curse Of The Black Spot / Прокляття чорної мітки
04. Doctor Wife / Дружина доктора
05. The Rebel Flesh / Бунтівна плоть
06. The Almost People / Ми же люди
07. A Good Man Goes to War / Хороша людина йде на війну
08. Let's Kill Hitler / Убиймо Гітлера
09. Night Terrors / Нічні жахи
10. The Girl Who Waited / Дівчина яка чекала
11. The God Complex / Комплекс Бога
12. Closing Time / Початок кінця
13. The Wedding Of River Song / Весілля Рівер Сонґ
Якість:
Відео:
кодек:
розмір кадру: 1280 х 720
бітрейт: 4618 кб/с

Аудіо # 1:
мова: українська
переклад: багатоголосий закадровий | Ролі озвучили: Олександр Солодкий, Михайло Войчук, Єлизавета Зіновенко та Юлія Малахова.
кодек: 2.0
бітрейт: 192 кб/с

Аудіо # 2:
мова: англійська
переклад: оригінал
кодек: 5.1
бітрейт: 448 кб/с

Субтитри:
мова: англійська
тип: програмні (м'які)
формат: .srt
Info
Video
ID : 1
Format : AVC
Format/Info : Advanced Video Codec
Format profile : [email protected]
Format settings, CABAC : Yes
Format settings, RefFrames : 5 frames
Codec ID : V_MPEG4/ISO/AVC
Duration : 1 h 1 min
Bit rate : 4 618 kb/s
Width : 1 280 pixels
Height : 720 pixels
Display aspect ratio : 16:9
Frame rate mode : Constant
Frame rate : 25.000 FPS
Color space : YUV
Chroma subsampling : 4:2:0
Bit depth : 8 bits
Scan type : Progressive
Bits/(Pixel*Frame) : 0.200
Stream size : 1.99 GiB (88%)
Writing library : core 112 r1867 22bfd31
Encoding settings : cabac=1 / ref=5 / deblock=1:0:0 / analyse=0x3:0x133 / me=umh / subme=7 / psy=1 / psy_rd=1.00:0.00 / mixed_ref=1 / me_range=16 / chroma_me=1 / trellis=1 / 8x8dct=1 / cqm=0 / deadzone=21,11 / fast_pskip=0 / chroma_qp_offset=-2 / threads=12 / sliced_threads=0 / nr=0 / decimate=1 / interlaced=0 / constrained_intra=0 / bframes=3 / b_pyramid=2 / b_adapt=1 / b_bias=0 / direct=3 / weightb=1 / open_gop=0 / weightp=2 / keyint=250 / keyint_min=25 / scenecut=40 / intra_refresh=0 / rc_lookahead=40 / rc=2pass / mbtree=1 / bitrate=4618 / ratetol=1.0 / qcomp=0.60 / qpmin=0 / qpmax=51 / qpstep=4 / cplxblur=20.0 / qblur=0.5 / ip_ratio=1.40 / aq=1:1.00
Language : English
Default : Yes
Forced : No

Audio #1
ID : 2
Format : AC-3
Format/Info : Audio Coding 3
Format settings, Endianness : Big
Codec ID : A_AC3
Duration : 1 h 1 min
Bit rate mode : Constant
Bit rate : 192 kb/s
Channel(s) : 2 channels
Channel positions : Front: L R
Sampling rate : 48.0 kHz
Frame rate : 31.250 FPS (1536 SPF)
Bit depth : 16 bits
Compression mode : Lossy
Stream size : 84.9 MiB (4%)
Title : MVO - K1
Language : Ukrainian
Service kind : Complete Main
Default : Yes
Forced : No

Audio #2
ID : 3
Format : AC-3
Format/Info : Audio Coding 3
Format settings, Endianness : Big
Codec ID : A_AC3
Duration : 1 h 1 min
Bit rate mode : Constant
Bit rate : 448 kb/s
Channel(s) : 6 channels
Channel positions : Front: L C R, Side: L R, LFE
Sampling rate : 48.0 kHz
Frame rate : 31.250 FPS (1536 SPF)
Bit depth : 16 bits
Compression mode : Lossy
Stream size : 198 MiB (9%)
Language : English
Service kind : Complete Main
Default : No
Forced : No

Text
ID : 4
Format : UTF-8
Codec ID : S_TEXT/UTF8
Codec ID/Info : UTF-8 Plain Text
Duration : 1 h 1 min
Bit rate : 73 b/s
Count of elements : 1077
Stream size : 33.1 KiB (0%)
Title : English
Language : English
Default : No
Forced : No

Menu
00:00:00.000 : en:00:00:00.000
00:02:26.480 : en:00:02:26.480
00:10:37.680 : en:00:10:37.680
00:12:59.520 : en:00:12:59.520
00:23:11.000 : en:00:23:11.000
00:29:54.760 : en:00:29:54.760
00:34:42.640 : en:00:34:42.640
00:41:01.880 : en:00:41:01.880
00:44:40.440 : en:00:44:40.440
00:52:06.560 : en:00:52:06.560
00:55:22.240 : en:00:55:22.240
01:00:14.480 : en:01:00:14.480
скріншоти









Подяка: п. drakon87 за наданий сирий звук.
Джерело:
Особиста оцінка: 10 - без зайвих вагань рекомендую всім!





Бронзовий реліз (на рейтинг впливає 75% завантаженого)
 Трекер:    Зареєстрований   

Завантажити / скачати серіал українською



відео для новачків



 Зареєстрований:   2019-06-22 19:58
 Розмір:   27.11 GB 
 Оцінка серіалу:   10/10 (Голосів: 8)
   
Anonymous 







2019-06-07 01:19  
Неймовірний голос та неймовірної краси сама співачка з Різдвяної серії.

Cartwright 
Поважний учасник


З нами з: 23.03.13
Востаннє: 17.08.19
Повідомлень: 230

2019-06-07 19:29  
Anonymous написано:
Неймовірний голос та неймовірної краси сама співачка з Різдвяної серії.

Так, в Мюррея Ґлода був найкращий саундтрек на телебаченні. Шкода, що він разом з Моффатом залишив серіал.
Новий композитор в останньому сезоні зовсім не вражає.

Anonymous 







2019-06-11 17:47  
+ 1-3 серії.
Seriy100293 
VIP


З нами з: 17.08.11
Востаннє: 17.08.19
Повідомлень: 460

2019-06-12 07:37  
А AVC планується?
Anonymous 







2019-06-12 16:06  
Seriy100293 написано:
А AVC планується?

https://toloka.to/t101382

AndriyIvanchenko 
Новенький


З нами з: 04.11.15
Востаннє: 17.08.19
Повідомлень: 18

2019-06-12 22:27  
А що означає "Цей реліз має занадто мало завантажень."?
Anonymous 







2019-06-22 19:59  
+ 10 -13 серії. Повний сезон.
Hanway 
Відео Гуртом - запис з ТБ
Відео Гуртом - запис з ТБ


З нами з: 20.05.11
Востаннє: 17.08.19
Повідомлень: 667

2019-06-24 18:05  
Anonymous написано:
1 жіночий

Два жіночих - Єлизавета Зіновенко та Юлія Малахова

Ваш часовий пояс: GMT + 2 Години

Нова тема   Відповісти