Фабрика футболу / Фанати / The Football Factory (2004) 720p Ukr/Eng | Sub Eng

Нові коментарі

Нова тема   Відповісти
Автор Повідомлення
Anonymous 







2019-06-06 11:46  
Фабрика футболу / Фанати / The Football Factory (2004) 720p Ukr/Eng | Sub Eng




Жанр: кримінальний, драма, спорт
Країна: Велика Британія



Кінокомпанія: Vertigo Films, Rockstar Games
Режисер: Нік Лав / Nick Love
Актори: Денні Дайєр / Danny Dyer, Френк Гарпер / Frank Harper, Темер Гассан / Tamer Hassan, Роланд Манук'ян / Roland Manookian, Ніл Мескелл / Neil Maskell, Дадлі Саттон / Dudley Sutton, Джеймі Формен / Jamie Foreman та інші

Сюжет:
Це не просто дослідження головної національної пристрасті англійців – футболу і футбольного фанатизму, це історія про чоловіків, котрі шукають до якої армії долучитися, на якій війні битися і з ким себе ідентифікувати. Це історія чотирьох хлопців – фанатів Челсі, які щосуботи, накачавшись пивом і наркотиками, вирушають на битву з фанами іншого клубу. А чим ще зайнятися у вихідні?

Тривалість: 01:30:58
Якість: 720p
Відео:
кодек:
розмір кадру: 1280х544
бітрейт: 6234 кб/с

Аудіо # 1:
мова: українська
переклад: багатоголосий закадровий
кодек: 2.0
бітрейт: 192 кб/с

Аудіо # 2:
мова: англійська
переклад: оригінал
кодек: 5.1
бітрейт: 640 кб/с

Джерело озвучення:


Субтитри:
мова: англійська
тип: програмні (м'які)
формат: *.srt
Info
Код:
General
Complete name                            :The Football Factory (2004) 720p [ukr,eng] [ViDeO_Hurtom].
Format                                   :
Format version                           : Version 4
File size                                : 4.49 GiB
Duration                                 : 1 h 30 min
Overall bit rate mode                    : Variable
Overall bit rate                         : 7 069 kb/s
Movie name                               : The Football Factory (2004) 720p [ukr,eng] [ViDeO_Hurtom]
Encoded date                             : UTC 2019-06-06 08:27:10
Writing application                      : v30.1.0 ('Forever And More') 64-bit
Writing library                          : libebml v1.3.6 + v1.4.9

Video
ID                                       : 1
Format                                   : AVC
Format/Info                              : Advanced Video Codec
Format profile                           : [email protected]
Format settings                          : CABAC / 3 Ref Frames
Format settings, CABAC                   : Yes
Format settings, RefFrames               : 3 frames
Format settings, GOP                     : M=4, N=24
Codec ID                                 : V_MPEG4/ISO/AVC
Duration                                 : 1 h 30 min
Bit rate mode                            : Variable
Bit rate                                 : 6 234 kb/s
Maximum bit rate                         : 38.0 Mb/s
Width                                    : 1 280 pixels
Height                                   : 544 pixels
Display aspect ratio                     : 2.35:1
Frame rate mode                          : Constant
Frame rate                               : 23.976 FPS
Color space                              : YUV
Chroma subsampling                       : 4:2:0
Bit depth                                : 8 bits
Scan type                                : Progressive
Bits/(Pixel*Frame)                       : 0.373
Stream size                              : 3.96 GiB (88%)
Title                                    : Fanati
Language                                 : English
Default                                  : Yes
Forced                                   : No

Audio #1
ID                                       : 2
Format                                   : AC-3
Format/Info                              : Audio Coding 3
Commercial name                          : Dolby Digital
Codec ID                                 : A_AC3
Duration                                 : 1 h 30 min
Bit rate mode                            : Constant
Bit rate                                 : 192 kb/s
Channel(s)                               : 2 channels
Channel layout                           : L R
Sampling rate                            : 48.0 kHz
Frame rate                               : 31.250 FPS (1536 SPF)
Bit depth                                : 16 bits
Compression mode                         : Lossy
Stream size                              : 125 MiB (3%)
Title                                    : , 2 ch, 192 Кбит/с
Language                                 : Ukrainian
Service kind                             : Complete Main
Default                                  : Yes
Forced                                   : No

Audio #2
ID                                       : 3
Format                                   : AC-3
Format/Info                              : Audio Coding 3
Commercial name                          : Dolby Digital
Codec ID                                 : A_AC3
Duration                                 : 1 h 30 min
Bit rate mode                            : Constant
Bit rate                                 : 640 kb/s
Channel(s)                               : 6 channels
Channel layout                           : L R C LFE Ls Rs
Sampling rate                            : 48.0 kHz
Frame rate                               : 31.250 FPS (1536 SPF)
Bit depth                                : 16 bits
Compression mode                         : Lossy
Stream size                              : 416 MiB (9%)
Title                                    : , 6 ch, 640 Кбт/с
Language                                 : English
Service kind                             : Complete Main
Default                                  : No
Forced                                   : No

Text
ID                                       : 4
Format                                   : UTF-8
Codec ID                                 : S_TEXT/UTF8
Codec ID/Info                            : UTF-8 Plain Text
Duration                                 : 1 h 25 min
Bit rate                                 : 68 b/s
Count of elements                        : 1037
Stream size                              : 43.1 KiB (0%)
Language                                 : English
Default                                  : Yes
Forced                                   : No
Скріншоти





Запис з ТБ: Sando7, POMEO;
Синхронізація: patriot2305


Джерело:
Особиста оцінка: 9 - давно не бачив настільки якісне кіно


Срібний реліз (на рейтинг впливає 50% завантаженого)
 Трекер:    Зареєстрований   

Завантажити / скачати фільм українською



відео для новачків



 Зареєстрований:   2019-06-06 11:46
 Розмір:   4.49 GB 
 Оцінка фільму:   9.5/10 (Голосів: 2)
   
Інші релізи
Anonymous 







2020-07-18 22:10  
9 / 10
Ваш часовий пояс: GMT + 2 Години

Нова тема   Відповісти