Капітан Марвел / Captain Marvel (2019) UHD Remux 4K 2160p HDR H.265 Ukr/Eng | Sub Eng

Нові коментарі

Нова тема   Відповісти
Автор Повідомлення
Anonymous 







2019-06-06 09:33  
Капітан Марвел / Captain Marvel (2019) UHD Remux 4K 2160p HDR H.265 Ukr/Eng | Sub Eng

Капітан Марвел / Captain Marvel (2019) UHD Remux 4K 2160p HDR H.265 Ukr/Eng | Sub Eng


Жанр: пригоди, фантастика, екшн
Країна: США





Кінокомпанія: Walt Disney Pictures, Marvel Studios
Режисер: Анна Боден, Раян Флек
Актори: Брі Ларсон, Семюел Л. Джексон, Бен Мендельсон, Джуд Лоу, Аннетт Бенінг, Лашана Лінч, Кларк Грегг, Джемма Чан

Сюжет:
Колись Керол Денверс жила на Землі та була пілотом ВПС США. У неї було важке дитинство, вона пройшла багато, щоб стати тою, ким стала. І всього цього дівчина майже не пам'ятає. Виною тому одна аварія, яка ледь не забрала її життя. Врятували Керол інопланетяни з раси Крії. Вони вирішили дати дівчині своєї крові, прийнявши до своєї раси та зробивши її ідеальним бійцем у війні з іншою жорстокої расою Скруллів. Керол має суперсили: вона невразлива, може літати та створює потужні потоки енергії. Коли полем битви двох рас стає Земля, дівчина починає згадувати своє минуле життя. Від Керол залежить доля Землі і раси Крії, адже вона одна з наймогутніших істот у Всесвіті.


Тривалість: 02:03:41
Якість: UHD Remux 4K 2160p
Відео:
кодек: H.265 (HEVC)
розмір кадру: 3840x2160
бітрейт: 47 Мб/с
бітова глибина: 10 біт
кольоровий простір: BT.2020 (HDR)

Аудіо # 1:
мова: українська
переклад: професійний дубльований
кодек: 5.1
бітрейт: 640 кб/с

Аудіо # 2:
мова: українська
переклад: професійний дубльований
кодек: 5.1
бітрейт: 1509 кб/с

Аудіо # 3:
мова: українська
переклад: професійний дубльований
кодек: -HD Master 5.1
бітрейт: 3731 кб/с

Аудіо # 4:
мова: англійська
переклад: оригінал
кодек: 5.1
бітрейт: 640 кб/с

Аудіо # 5:
мова: англійська
переклад: оригінал
кодек: TrueHD 7.1
бітрейт: 4613 кб/с

Субтитри # 1: (Forced)
мова: українська
тип: програмні (м'які)
формат: *.srt
переклад: Ash61

Субтитри # 2-4: (Full, SDH, SDH-Colored)
мова: англійська
тип: програмні (м'які)
формат: *.srt
Info
Код:
General
Complete name                            : Captain Marvel (2019) Remux 4K 2160p HDR H.265 [ukr_eng] [ViDeO_Hurtom].
Format                                   :
Format version                           : Version 4
File size                                : 50.3 GiB
Duration                                 : 2 h 3 min
Overall bit rate mode                    : Variable
Overall bit rate                         : 58.2 Mb/s
Movie name                               : Captain Marvel (2019) Remux 4K 2160p HDR H.265 [ukr_eng] [ViDeO_Hurtom]
Encoded date                             : UTC 2019-06-26 09:38:48
Writing application                      : v30.1.0 ('Forever And More') 64-bit
Writing library                          : libebml v1.3.6 + v1.4.9

Video
ID                                       : 1
Format                                   : HEVC
Format/Info                              : High Efficiency Video Coding
Commercial name                          : HDR10
Format profile                           : Main [email protected]@High
Codec ID                                 : V_MPEGH/ISO/HEVC
Duration                                 : 2 h 3 min
Bit rate                                 : 47.0 Mb/s
Width                                    : 3 840 pixels
Height                                   : 2 160 pixels
Display aspect ratio                     : 16:9
Frame rate mode                          : Constant
Frame rate                               : 23.976 (24000/1001) FPS
Color space                              : YUV
Chroma subsampling                       : 4:2:0 (Type 2)
Bit depth                                : 10 bits
Bits/(Pixel*Frame)                       : 0.236
Stream size                              : 40.6 GiB (81%)
Writing library                          : ATEME Titan File 3.9.0 (4.9.0.0)
Language                                 : English
Default                                  : Yes
Forced                                   : No
Color range                              : Limited
Color primaries                          : BT.2020
Transfer characteristics                 : PQ
Matrix coefficients                      : BT.2020 non-constant
Mastering display color primaries        : Display P3
Mastering display luminance              : min: 0.0020 cd/m2, max: 1000 cd/m2

Audio #1
ID                                       : 2
Format                                   : AC-3
Format/Info                              : Audio Coding 3
Commercial name                          : Dolby Digital
Codec ID                                 : A_AC3
Duration                                 : 2 h 3 min
Bit rate mode                            : Constant
Bit rate                                 : 640 kb/s
Channel(s)                               : 6 channels
Channel layout                           : L R C LFE Ls Rs
Sampling rate                            : 48.0 kHz
Frame rate                               : 31.250 FPS (1536 SPF)
Bit depth                                : 16 bits
Compression mode                         : Lossy
Stream size                              : 566 MiB (1%)
Title                                    : , 6 ch, 640 Кит/с
Language                                 : Ukrainian
Service kind                             : Complete Main
Default                                  : Yes
Forced                                   : No

Audio #2
ID                                       : 3
Format                                   :
Format/Info                              : Digital Theater Systems
Codec ID                                 : A_DTS
Duration                                 : 2 h 3 min
Bit rate mode                            : Constant
Bit rate                                 : 1 509 kb/s
Channel(s)                               : 6 channels
Channel layout                           : C L R Ls Rs LFE
Sampling rate                            : 48.0 kHz
Frame rate                               : 93.750 FPS (512 SPF)
Bit depth                                : 24 bits
Compression mode                         : Lossy
Stream size                              : 1.30 GiB (3%)
Title                                    : , 6 ch, 1509 Кит/с
Language                                 : Ukrainian
Default                                  : No
Forced                                   : No

Audio #3
ID                                       : 4
Format                                   : XLL
Format/Info                              : Digital Theater Systems
Commercial name                          : -HD Master Audio
Codec ID                                 : A_DTS
Duration                                 : 2 h 3 min
Bit rate mode                            : Variable
Bit rate                                 : 3 731 kb/s
Channel(s)                               : 6 channels
Channel layout                           : C L R Ls Rs LFE
Sampling rate                            : 48.0 kHz
Frame rate                               : 93.750 FPS (512 SPF)
Bit depth                                : 24 bits
Compression mode                         : Lossless
Stream size                              : 3.22 GiB (6%)
Title                                    : -HD Master, 6 ch, 3731 Кит/с
Language                                 : Ukrainian
Default                                  : No
Forced                                   : No

Audio #4
ID                                       : 5
Format                                   : AC-3
Format/Info                              : Audio Coding 3
Commercial name                          : Dolby Digital
Codec ID                                 : A_AC3
Duration                                 : 2 h 3 min
Bit rate mode                            : Constant
Bit rate                                 : 640 kb/s
Channel(s)                               : 6 channels
Channel layout                           : L R C LFE Ls Rs
Sampling rate                            : 48.0 kHz
Frame rate                               : 31.250 FPS (1536 SPF)
Bit depth                                : 16 bits
Compression mode                         : Lossy
Stream size                              : 566 MiB (1%)
Title                                    : , 6 ch, 640 Кит/с
Language                                 : English
Service kind                             : Complete Main
Default                                  : No
Forced                                   : No

Audio #5
ID                                       : 6
Format                                   : MLP FBA 16-ch
Format/Info                              : Meridian Lossless Packing FBA with 16-channel presentation
Commercial name                          : Dolby TrueHD with Dolby Atmos
Codec ID                                 : A_TRUEHD
Duration                                 : 2 h 3 min
Bit rate mode                            : Variable
Bit rate                                 : 4 613 kb/s
Maximum bit rate                         : 7 317 kb/s
Channel(s)                               : 8 channels
Channel layout                           : L R C LFE Ls Rs Lb Rb
Sampling rate                            : 48.0 kHz
Frame rate                               : 1 200.000 FPS (40 SPF)
Compression mode                         : Lossless
Stream size                              : 3.99 GiB (8%)
Title                                    : TrueHD, 8 ch, 4613 Кбт/с
Language                                 : English
Default                                  : No
Forced                                   : No
Number of dynamic objects                : 13
Bed channel count                        : 1 channel
Bed channel configuration                : LFE

Text #1
ID                                       : 7
Format                                   : UTF-8
Codec ID                                 : S_TEXT/UTF8
Codec ID/Info                            : UTF-8 Plain Text
Duration                                 : 1 h 55 min
Bit rate                                 : 1 b/s
Count of elements                        : 17
Stream size                              : 948 Bytes (0%)
Title                                    : Forced
Language                                 : Ukrainian
Default                                  : Yes
Forced                                   : No

Text #2
ID                                       : 8
Format                                   : UTF-8
Codec ID                                 : S_TEXT/UTF8
Codec ID/Info                            : UTF-8 Plain Text
Duration                                 : 1 h 53 min
Bit rate                                 : 47 b/s
Count of elements                        : 1422
Stream size                              : 39.6 KiB (0%)
Title                                    : Full
Language                                 : English
Default                                  : No
Forced                                   : No

Text #3
ID                                       : 9
Format                                   : UTF-8
Codec ID                                 : S_TEXT/UTF8
Codec ID/Info                            : UTF-8 Plain Text
Duration                                 : 2 h 2 min
Bit rate                                 : 50 b/s
Count of elements                        : 1668
Stream size                              : 45.1 KiB (0%)
Title                                    : SDH
Language                                 : English
Default                                  : No
Forced                                   : No

Text #4
ID                                       : 10
Format                                   : UTF-8
Codec ID                                 : S_TEXT/UTF8
Codec ID/Info                            : UTF-8 Plain Text
Duration                                 : 2 h 2 min
Bit rate                                 : 67 b/s
Count of elements                        : 1665
Stream size                              : 60.9 KiB (0%)
Title                                    : SDH Colored
Language                                 : English
Default                                  : No
Forced                                   : No

Menu
00:00:00.000                             : en:"Dreams Again"
00:06:51.286                             : en:Search And Rescue
00:14:07.055                             : en:Memory Manipulation
00:23:17.438                             : en:Planet C-53
00:29:37.192                             : en:Subway Skrull
00:35:06.938                             : en:Searching For Answers
00:44:07.603                             : en:Project P.E.G.A.S.U.S.
00:50:42.665                             : en:Backup Arrives
00:56:17.791                             : en:Reunited
01:03:01.987                             : en:Revelation
01:11:16.564                             : en:"You Are Carol Danvers"
01:17:48.330                             : en:Skrull Survivors
01:27:02.217                             : en:"Finally Set Free"
01:33:21.596                             : en:Starforce Battle
01:40:50.962                             : en:Ronan's Offensive
01:46:24.253                             : en:Taking The Initiative
01:52:49.054                             : en:End Credits
[/center]
Скріншоти
Подяка пану Hanway за синхронізацію звуку.

Джерело:
Особиста оцінка: 9 - давно не бачив настільки якісне кіно

Увага! Перед завантаженням переконайтесь, що ваш пристрій відтворення (та/або ПЗ) підтримує H.265 (HEVC)


Золотий реліз (завантажене не впливає на рейтинг)
 Трекер:    Зареєстрований   

Завантажити / скачати фільм українською



відео для новачків



 Зареєстрований:   2019-06-26 12:35
 Розмір:   50.26 GB 
 Оцінка фільму:   8/10 (Голосів: 24)
   
rudder1992 
Свій


З нами з: 25.02.17
Востаннє: 07.12.19
Повідомлень: 106

2019-06-06 19:39  
Фемінізм у "всій своїй красі"...
zoomymba2012 
VIP


З нами з: 08.01.15
Востаннє: 09.12.19
Повідомлень: 654

2019-06-06 19:46  
rudder1992 написано:
Фемінізм у "всій своїй красі"...

У цьому фільмі як раз таки дуже адекватний фемінізм. Без дурниць та перебільшень. А фемінізм то добре, коли він правильний, як у цьому фільмі.

bot 
робот


З нами з: 30.09.07
Востаннє: 26.05.05
Повідомлень: 22602

2019-06-08 20:10  
Тему перенесено з Анонси релізів до форуму Фільми в HD


antik_2008

Argentum 
Поважний учасник


З нами з: 25.09.11
Востаннє: 08.12.19
Повідомлень: 222

2019-06-25 08:39  
Вітаю. Ось тут є форсовані саби українською до цього фільму.
Anonymous 







2019-06-25 08:41  
Argentum написано:
Вітаю. Ось тут є форсовані саби українською до цього фільму.

Дякую!

Bandit 01 
Частий відвідувач


З нами з: 22.07.11
Востаннє: 09.12.19
Повідомлень: 27

2019-06-25 19:19  
antik_2008 написано:

Argentum написано:
Вітаю. Ось тут є форсовані саби українською до цього фільму.

Дякую!

до 5.1 оновиться? дяк.

Anonymous 







2019-06-26 12:35  
Реліз оновлено. Додав субтитри і кращий звук.
Anonymous 







2019-07-02 18:42  
Особиста оцінка: 9 - давно не бачив настільки якісне кіно
agamem 
Частий відвідувач


З нами з: 24.05.12
Востаннє: 08.12.19
Повідомлень: 29

2019-09-25 13:51  
zoomymba2012
zoomymba2012 написано:
У цьому фільмі як раз таки дуже адекватний фемінізм. Без дурниць та перебільшень. А фемінізм то добре, коли він правильний, як у цьому фільмі.


Якраз тут показаний агресивний фемінізм. + ще є вставка з натяком на лесбо (головний персонаж і негритянка). Чоловіки ж показані, як якісь дітлахи.

Ваш часовий пояс: GMT + 2 Години

Нова тема   Відповісти