Швидкість / Speed (1994) 1080p H.265 2xUkr/Eng | Sub Eng

Нові коментарі

Нова тема   Відповісти
Автор Повідомлення
Anonymous 







2019-06-06 02:09  
Швидкість / Speed (1994) 1080p H.265 2xUkr/Eng | Sub Eng

Швидкість / Speed (1994) 1080p H.265 2xUkr/Eng | Sub Eng


Жанр: бойовик, трилер, пригодницький
Країна: США
Кінокомпанія: Ян Де Бонт / Jan de Bont
Режисер: Марк Манчіна / Mark Mancina
Актори: Кіану Рівз / Keanu Reeves, Сандра Буллок /Sandra Bullock, Денніс Гоппер / Dennis Hopper, Джо Мортон /Joe Morton, Джефф Деніелс / Jeff Daniels, Алан Рак / Alan Ruck, Гленн Пламмер / Glenn Plummer, Річард Лайнбек / Richard Lineback та інші

Сюжет:
Уявіть дівчину, в якої на задньому склі автомобіля приклеєно наліпку зі знаком оклику, чайником і дивною туфлею з підписом «Поважай мене!». Тепер уявіть цю дівчину за кермом гігантського американського автобуса, який мчить по місту з величезною швидкістю у годину пік. Досить кумедне видовище, якщо не знати, що автобус заміновано і він може вибухнути, якщо стрілка спідометра опуститься нижче за вісімдесят кілометрів на годину.

Пасажири у паніці, події розгортаються із шаленою швидкістю, а часу до вибуху дедалі менше, На пошуки таємничого терориста, який уже довів серйозність своїх намірів, ледь не висадивши у повітря повний людей ліфт, кинуто елітні підрозділи поліції. Та час спливає, а вийти на слід злочинця так і не вдається.

У двобій із терористом вступає найкращий боєць спецзагону Джек Трейвен. Тепер від того, чи зможе він правильно розпорядитися секундами, що лишилися до вибуху, залежать життя десятків людей...

Тривалість: 01:55:53
Якість:
Відео:
кодек: H.265 (HEVC)
розмір кадру: 1920 x 816
бітрейт: 12 251 кб/с
бітова глибина: 10 біт
Увага! Перед завантаженням переконайтесь, що ваш пристрій відтворення (та/або ПЗ) підтримує H.265 (HEVC)

Аудіо # 1:
мова: українська
переклад: багатоголосий закадровий ,
кодек: AC-3 2.0
бітрейт: 192 кб/с

Аудіо # 2:
мова: українська
переклад: двоголосий закадровий
кодек: AC-3 5.1
бітрейт: 384 кб/с

Аудіо # 3:
мова: англійська
переклад: оригінал
кодек: AC-3 5.1
бітрейт: 640 кб/с

Субтитри # 1:
мова: англійська (Full),
тип: програмні (м'які)
формат: *.srt


Info
Код:
General
Unique ID                                : 75541069940372840737623792050024805399 (0x38D4AE4D084CB65129BA1AEEFB54F417)
Complete name                            : F:\Video\Speed (1994) 1080p H.265 [2xUKR_ENG] [Hurtom].
Format                                   :
Format version                           : Version 4 / Version 2
File size                                : 10.9 GiB
Duration                                 : 1 h 55 min
Overall bit rate                         : 13.5 Mb/s
Movie name                               : Швидкість / Speed (1994)
Encoded date                             : UTC 2019-06-04 21:16:34
Writing application                      : v20.0.0 ('I Am The Sun') 64-bit
Writing library                          : libebml v1.3.5 + v1.4.8
Cover                                    : Yes
Attachments                              : Cover.jpg

Video
ID                                       : 1
Format                                   : HEVC
Format/Info                              : High Efficiency Video Coding
Format profile                           : Main [email protected]@High
Codec ID                                 : V_MPEGH/ISO/HEVC
Duration                                 : 1 h 55 min
Bit rate                                 : 12.3 Mb/s
Width                                    : 1 920 pixels
Height                                   : 816 pixels
Display aspect ratio                     : 2.35:1
Frame rate mode                          : Constant
Frame rate                               : 23.976 (24000/1001) FPS
Color space                              : YUV
Chroma subsampling                       : 4:2:0
Bit depth                                : 10 bits
Bits/(Pixel*Frame)                       : 0.326
Stream size                              : 9.92 GiB (91%)
Title                                    : Швидкість / Speed (1994)
Writing library                          : x265 3.0+1-ed72af837053:[Windows][MSVC 1916][64 bit] 10bit
Encoding settings                        : cpuid=1111039 / frame-threads=4 / numa-pools=16 / wpp / no-pmode / no-pme / no-psnr / no-ssim / log-level=2 / input-csp=1 / input-res=1920x816 / interlace=0 / total-frames=166724 / level-idc=41 / high-tier=1 / uhd-bd=0 / ref=5 / no-allow-non-conformance / no-repeat-headers / annexb / no-aud / no-hrd / info / hash=0 / no-temporal-layers / open-gop / min-keyint=23 / keyint=240 / gop-lookahead=0 / bframes=11 / b-adapt=2 / b-pyramid / bframe-bias=0 / rc-lookahead=60 / lookahead-slices=1 / scenecut=40 / radl=0 / no-splice / no-intra-refresh / ctu=32 / min-cu-size=8 / rect / amp / max-tu-size=32 / tu-inter-depth=4 / tu-intra-depth=4 / limit-tu=1 / rdoq-level=2 / dynamic-rd=0.00 / no-ssim-rd / signhide / no-tskip / nr-intra=0 / nr-inter=0 / no-constrained-intra / no-strong-intra-smoothing / max-merge=5 / limit-refs=3 / limit-modes / me=3 / subme=7 / merange=57 / temporal-mvp / weightp / weightb / no-analyze-src-pics / deblock=-3:-3 / no-sao / no-sao-non-deblock / rd=6 / no-early-skip / no-rskip / no-fast-intra / no-tskip-fast / no-cu-lossless / no-b-intra / no-splitrd-skip / rdpenalty=0 / psy-rd=2.00 / psy-rdoq=1.00 / no-rd-refine / no-lossless / cbqpoffs=0 / crqpoffs=0 / rc=crf / crf=19.0 / qcomp=0.70 / qpstep=4 / stats-write=0 / stats-read=0 / vbv-maxrate=50000 / vbv-bufsize=50000 / vbv-init=0.9 / crf-max=0.0 / crf-min=0.0 / ipratio=1.40 / pbratio=1.30 / aq-mode=1 / aq-strength=1.00 / no-cutree / zone-count=0 / no-strict-cbr / qg-size=32 / no-rc-grain / qpmax=69 / qpmin=0 / no-const-vbv / sar=1 / overscan=0 / videoformat=5 / range=0 / colorprim=1 / transfer=1 / colormatrix=1 / chromaloc=0 / display-window=0 / max-cll=0,0 / min-luma=0 / max-luma=1023 / log2-max-poc-lsb=8 / vui-timing-info / vui-hrd-info / slices=1 / no-opt-qp-pps / no-opt-ref-list-length-pps / no-multi-pass-opt-rps / scenecut-bias=0.05 / no-opt-cu-delta-qp / no-aq-motion / no-hdr / no-hdr-opt / no-dhdr10-opt / no-idr-recovery-sei / analysis-reuse-level=5 / scale-factor=0 / refine-intra=0 / refine-inter=0 / refine-mv=0 / refine-ctu-distortion=0 / no-limit-sao / ctu-info=0 / no-lowpass-dct / refine-analysis-type=0 / copy-pic=1 / max-ausize-factor=1.0 / no-dynamic-refine / no-single-sei / hevc-aq / qp-adaptation-range=2.00
Language                                 : English
Default                                  : Yes
Forced                                   : No
Color range                              : Limited
Color primaries                          : BT.709
Transfer characteristics                 : BT.709
Matrix coefficients                      : BT.709

Audio #1
ID                                       : 2
Format                                   : AC-3
Format/Info                              : Audio Coding 3
Codec ID                                 : A_AC3
Duration                                 : 1 h 55 min
Bit rate mode                            : Constant
Bit rate                                 : 192 kb/s
Channel(s)                               : 2 channels
Channel positions                        : Front: L R
Sampling rate                            : 48.0 kHz
Frame rate                               : 31.250 FPS (1536 SPF)
Bit depth                                : 16 bits
Compression mode                         : Lossy
Delay relative to video                  : 1 s 0 ms
Stream size                              : 159 MiB (1%)
Title                                    : БЗ - 1+1, 2+2
Language                                 : Ukrainian
Service kind                             : Complete Main
Default                                  : Yes
Forced                                   : Yes

Audio #2
ID                                       : 3
Format                                   : AC-3
Format/Info                              : Audio Coding 3
Codec ID                                 : A_AC3
Duration                                 : 1 h 55 min
Bit rate mode                            : Constant
Bit rate                                 : 384 kb/s
Channel(s)                               : 6 channels
Channel positions                        : Front: L C R, Side: L R, LFE
Sampling rate                            : 48.0 kHz
Frame rate                               : 31.250 FPS (1536 SPF)
Bit depth                                : 16 bits
Compression mode                         : Lossy
Delay relative to video                  : 1 s 0 ms
Stream size                              : 318 MiB (3%)
Title                                    : ДЗ - Novy Kanal
Language                                 : Ukrainian
Service kind                             : Complete Main
Default                                  : No
Forced                                   : No

Audio #3
ID                                       : 4
Format                                   : AC-3
Format/Info                              : Audio Coding 3
Codec ID                                 : A_AC3
Duration                                 : 1 h 55 min
Bit rate mode                            : Constant
Bit rate                                 : 640 kb/s
Channel(s)                               : 6 channels
Channel positions                        : Front: L C R, Side: L R, LFE
Sampling rate                            : 48.0 kHz
Frame rate                               : 31.250 FPS (1536 SPF)
Bit depth                                : 16 bits
Compression mode                         : Lossy
Stream size                              : 531 MiB (5%)
Title                                    : Original
Language                                 : English
Service kind                             : Complete Main
Default                                  : No
Forced                                   : No

Text
ID                                       : 5
Format                                   : UTF-8
Codec ID                                 : S_TEXT/UTF8
Codec ID/Info                            : UTF-8 Plain Text
Duration                                 : 1 h 51 min
Bit rate                                 : 63 b/s
Count of elements                        : 1370
Stream size                              : 52.4 KiB (0%)
Title                                    : Full
Language                                 : English
Default                                  : No
Forced                                   : No

Menu
00:00:00.000                             : en:Chapter 01
00:04:18.549                             : en:Chapter 02
00:06:03.321                             : en:Chapter 03
00:08:26.088                             : en:Chapter 04
00:11:16.884                             : en:Chapter 05
00:15:22.713                             : en:Chapter 06
00:17:37.222                             : en:Chapter 07
00:23:20.816                             : en:Chapter 08
00:26:42.767                             : en:Chapter 09
00:31:00.775                             : en:Chapter 10
00:35:04.519                             : en:Chapter 11
00:40:25.131                             : en:Chapter 12
00:44:34.630                             : en:Chapter 13
00:48:45.505                             : en:Chapter 14
00:53:08.185                             : en:Chapter 15
00:55:46.593                             : en:Chapter 16
00:58:50.818                             : en:Chapter 17
01:02:18.443                             : en:Chapter 18
01:07:37.386                             : en:Chapter 19
01:08:53.546                             : en:Chapter 20
01:11:50.514                             : en:Chapter 21
01:15:15.844                             : en:Chapter 22
01:15:39.535                             : en:Chapter 23
01:19:32.517                             : en:Chapter 24
01:23:26.584                             : en:Chapter 25
01:27:03.635                             : en:Chapter 26
01:32:56.195                             : en:Chapter 27
01:37:05.027                             : en:Chapter 28
01:40:27.229                             : en:Chapter 29
01:42:18.882                             : en:Chapter 30
01:46:04.775                             : en:Chapter 31
01:50:05.265                             : en:Chapter 32
01:55:52.946                             : en:Chapter 33
Світлини





Джерело: &
Особиста оцінка: 0 - не дивився


Срібний реліз (на рейтинг впливає 50% завантаженого)
 Трекер:    Зареєстрований   

Завантажити / скачати фільм українською



відео для новачків



 Зареєстрований:   2019-06-06 02:09
 Розмір:   10.9 GB 
 Оцінка фільму:   9.9/10 (Голосів: 7)
   
Інші релізи
   Швидкість / Speed (1994) 2xUkr/Eng antik_2008  1 / 0   2.51 GB   2019-09-01 11:47 
   Швидкість / Speed (1994) Remux 1080p 2хUkr/Eng | Sub Eng MakRA  2 / 0   19.16 GB   2019-08-25 02:00 
   Швидкість / Speed (1994) AVC 2xUkr/Eng | Sub Eng drop_plz  13 / 0   2.85 GB   2018-08-20 18:43 
   Швидкість / Speed (1994) [MP4, 640x] apvAltisimo  1 / 0   1005 MB   2016-10-30 16:32 
   Швидкість / Speed (1994) 1080p 2xUkr/Eng | Sub Eng igor911  5 / 0   8.01 GB   2013-08-30 23:38 
ngxwinger 
Свій


З нами з: 19.01.14
Востаннє: 30.09.20
Повідомлень: 66

2019-09-01 02:10  
Тільки подумати, що стрічці вже 25 років... Вкотре переглянув і зловив себе на думці, що "Швидкість" і зараз тримає в напрузі під час перегляду значно краще багатьох сучасних "екшн" фільмів.
Ваш часовий пояс: GMT + 2 Години

Нова тема   Відповісти