Меркурій в небезпеці / Mercury Rising (1998) 1080p H.265 Ukr/Eng | Sub Eng

Нові коментарі

Нова тема   Відповісти
Автор Повідомлення
Anonymous 







2019-06-06 02:08  
Меркурій в небезпеці / Mercury Rising (1998) 1080p H.265 Ukr/Eng | Sub Eng

Меркурій в небезпеці / Mercury Rising (1998) 1080p H.265 Ukr/Eng | Sub Eng


Жанр: екшн, кримінальний, драма, трилер
Країна: США
Кінокомпанія: Universal Pictures, Imagine Entertainment
Режисер: Гарольд Беккер
Актори: Брюс Вілліс, Алек Болдвін, Міко Г'юз, Чі МакБрайд, Кім Дікенс, Роберт Стентон, Бодхі Елфмен, Кіррі Престон, Ліндсі Гінтер, Пітер Стормар, Кевін Конуей, Джон Керролл Лінч, Келлі Хазен, Джон Домен, Річард Ніхль, Чад Ліндберг, Хенк Харріс, Джеймс МакДональд, Камрін Менхейм, Джек Конл

Сюжет:
Колишній співробітник ФБР Арт Джеффріс захищає від безжалісних федеральних агентів Саймона, дев'ятирічного хлопчика, що зумів розкрити новий, «непіддатливий дешифруванню» урядовий код. Саймон може читати «Меркурій», новітній шифрувальний код, так само легко, як інші діти читають книги.
Ці здібності ставлять під загрозу сам сенс існування новітньої розробки вартістю мільярд доларів, особливо якщо вороги Сполучених Штатів дізнаються про незвичайного хлопчика і захоплять його. Голова Програми Нік Кудроу наказує усунути «загрозу безпеки країни», але він не враховує, що в справу втрутиться Джеффріс. Переслідувані кривавими вбивцями, Саймон і Джеффріс розуміють, що нікому довіряти не можна.
Час працює не на них, і детектив вирішує, що єдина надія на порятунок - використовувати дивні здібності Саймона і призвати вбивць до відповіді.

Тривалість: 01:51:20
Якість:
Відео:
кодек: H.265 (HEVC)
розмір кадру: 1920 x 816
бітрейт: 7 063 кб/с
бітова глибина: 10 біт
Увага! Перед завантаженням переконайтесь, що ваш пристрій відтворення (та/або ПЗ) підтримує H.265 (HEVC)

Аудіо # 1:
мова: українська
переклад: багатоголосий закадровий
кодек: AC-3 2.0
бітрейт: 192 кб/с

Аудіо # 2:
мова: англійська
переклад: оригінал
кодек: 5.1
бітрейт: 1510 кб/с

Субтитри # 1:
мова: англійська (Full),
тип: програмні (м'які)
формат: *.srt


Info
Код:
General
Unique ID                                : 119491990827945744778388859482144515003 (0x59E55200D1B0ECFC1C93211F84AC23BB)
Complete name                            : F:\Video\Mercury Rising (1998) 1080p H.265 [UKR_ENG] [Hurtom].
Format                                   :
Format version                           : Version 4 / Version 2
File size                                : 6.82 GiB
Duration                                 : 1 h 51 min
Overall bit rate                         : 8 760 kb/s
Movie name                               : Меркурій в небезпеці / Mercury Rising (1998)
Encoded date                             : UTC 2019-06-04 19:55:23
Writing application                      : v20.0.0 ('I Am The Sun') 64-bit
Writing library                          : libebml v1.3.5 + v1.4.8
Cover                                    : Yes
Attachments                              : Cover.jpg

Video
ID                                       : 1
Format                                   : HEVC
Format/Info                              : High Efficiency Video Coding
Format profile                           : Main [email protected]@High
Codec ID                                 : V_MPEGH/ISO/HEVC
Duration                                 : 1 h 51 min
Bit rate                                 : 7 063 kb/s
Width                                    : 1 920 pixels
Height                                   : 816 pixels
Display aspect ratio                     : 2.35:1
Frame rate mode                          : Constant
Frame rate                               : 23.976 (24000/1001) FPS
Color space                              : YUV
Chroma subsampling                       : 4:2:0
Bit depth                                : 10 bits
Bits/(Pixel*Frame)                       : 0.188
Stream size                              : 5.49 GiB (81%)
Title                                    : Меркурій в небезпеці / Mercury Rising (1998)
Writing library                          : x265 2.9+9-f74003e88622:[Windows][GCC 8.2.0][64 bit] 10bit
Encoding settings                        : cpuid=1111039 / frame-threads=9 / numa-pools=8 / wpp / no-pmode / no-pme / no-psnr / no-ssim / log-level=3 / input-csp=1 / input-res=1920x816 / interlace=0 / total-frames=0 / level-idc=41 / high-tier=1 / uhd-bd=0 / ref=5 / allow-non-conformance / no-repeat-headers / annexb / no-aud / no-hrd / info / hash=0 / no-temporal-layers / open-gop / min-keyint=24 / keyint=240 / gop-lookahead=0 / bframes=16 / b-adapt=2 / b-pyramid / bframe-bias=0 / rc-lookahead=40 / lookahead-slices=5 / scenecut=40 / radl=0 / no-intra-refresh / ctu=32 / min-cu-size=8 / rect / amp / max-tu-size=32 / tu-inter-depth=1 / tu-intra-depth=1 / limit-tu=0 / rdoq-level=0 / dynamic-rd=0.00 / no-ssim-rd / signhide / no-tskip / nr-intra=0 / nr-inter=0 / no-constrained-intra / no-strong-intra-smoothing / max-merge=5 / limit-refs=3 / no-limit-modes / me=3 / subme=7 / merange=57 / temporal-mvp / weightp / weightb / no-analyze-src-pics / deblock=-3:-3 / no-sao / no-sao-non-deblock / rd=6 / no-early-skip / no-rskip / no-fast-intra / no-tskip-fast / no-cu-lossless / no-b-intra / no-splitrd-skip / rdpenalty=0 / psy-rd=2.00 / psy-rdoq=0.00 / no-rd-refine / no-lossless / cbqpoffs=0 / crqpoffs=0 / rc=crf / crf=20.0 / qcomp=0.60 / qpstep=4 / stats-write=0 / stats-read=0 / vbv-maxrate=50000 / vbv-bufsize=50000 / vbv-init=0.9 / crf-max=0.0 / crf-min=0.0 / ipratio=1.40 / pbratio=1.30 / aq-mode=3 / aq-strength=1.00 / no-cutree / zone-count=0 / no-strict-cbr / qg-size=32 / no-rc-grain / qpmax=69 / qpmin=0 / no-const-vbv / sar=1 / overscan=0 / videoformat=5 / range=0 / colorprim=1 / transfer=1 / colormatrix=1 / chromaloc=0 / display-window=0 / max-cll=0,0 / min-luma=0 / max-luma=1023 / log2-max-poc-lsb=8 / vui-timing-info / vui-hrd-info / slices=1 / no-opt-qp-pps / no-opt-ref-list-length-pps / no-multi-pass-opt-rps / scenecut-bias=0.05 / no-opt-cu-delta-qp / no-aq-motion / no-hdr / no-hdr-opt / no-dhdr10-opt / no-idr-recovery-sei / analysis-reuse-level=5 / scale-factor=0 / refine-intra=0 / refine-inter=0 / refine-mv=0 / no-limit-sao / ctu-info=0 / no-lowpass-dct / refine-mv-type=0 / copy-pic=1 / max-ausize-factor=1.0 / no-dynamic-refine / no-single-sei
Language                                 : English
Default                                  : Yes
Forced                                   : No
Color range                              : Limited
Color primaries                          : BT.709
Transfer characteristics                 : BT.709
Matrix coefficients                      : BT.709

Audio #1
ID                                       : 2
Format                                   : AC-3
Format/Info                              : Audio Coding 3
Codec ID                                 : A_AC3
Duration                                 : 1 h 51 min
Bit rate mode                            : Constant
Bit rate                                 : 192 kb/s
Channel(s)                               : 2 channels
Channel positions                        : Front: L R
Sampling rate                            : 48.0 kHz
Frame rate                               : 31.250 FPS (1536 SPF)
Bit depth                                : 16 bits
Compression mode                         : Lossy
Stream size                              : 153 MiB (2%)
Title                                    : БЗ - Kanal Ukraina
Language                                 : Ukrainian
Service kind                             : Complete Main
Default                                  : Yes
Forced                                   : Yes

Audio #2
ID                                       : 3
Format                                   :
Format/Info                              : Digital Theater Systems
Codec ID                                 : A_DTS
Duration                                 : 1 h 51 min
Bit rate mode                            : Constant
Bit rate                                 : 1 509 kb/s
Channel(s)                               : 6 channels
Channel positions                        : Front: L C R, Side: L R, LFE
Sampling rate                            : 48.0 kHz
Frame rate                               : 93.750 FPS (512 SPF)
Bit depth                                : 24 bits
Compression mode                         : Lossy
Delay relative to video                  : 11 ms
Stream size                              : 1.17 GiB (17%)
Title                                    : Original
Language                                 : English
Default                                  : No
Forced                                   : No

Text
ID                                       : 4
Format                                   : UTF-8
Codec ID                                 : S_TEXT/UTF8
Codec ID/Info                            : UTF-8 Plain Text
Duration                                 : 1 h 42 min
Bit rate                                 : 57 b/s
Count of elements                        : 1402
Stream size                              : 42.9 KiB (0%)
Title                                    : Full
Language                                 : English
Default                                  : No
Forced                                   : No

Menu
00:00:00.000                             : :Chapter 1
00:08:45.357                             : :Chapter 2
00:09:41.581                             : :Chapter 3
00:11:19.553                             : :Chapter 4
00:14:16.814                             : :Chapter 5
00:20:00.866                             : :Chapter 6
00:23:35.413                             : :Chapter 7
00:28:00.095                             : :Chapter 8
00:30:51.391                             : :Chapter 9
00:35:19.033                             : :Chapter 10
00:38:59.253                             : :Chapter 11
00:43:10.713                             : :Chapter 12
00:47:39.982                             : :Chapter 13
00:48:51.386                             : :Chapter 14
00:50:38.285                             : :Chapter 15
00:53:38.965                             : :Chapter 16
00:56:18.249                             : :Chapter 17
01:00:49.854                             : :Chapter 18
01:02:39.964                             : :Chapter 19
01:06:01.165                             : :Chapter 20
01:07:53.194                             : :Chapter 21
01:09:35.004                             : :Chapter 22
01:13:33.575                             : :Chapter 23
01:16:21.868                             : :Chapter 24
01:19:52.912                             : :Chapter 25
01:23:31.673                             : :Chapter 26
01:29:07.175                             : :Chapter 27
01:34:56.357                             : :Chapter 28
01:37:55.578                             : :Chapter 29
01:40:44.747                             : :Chapter 30
01:42:49.913                             : :Chapter 31
01:43:57.898                             : :Chapter 32
01:46:35.722                             : :Chapter 33
01:51:20.423                             : :Chapter 34
Світлини





Джерело: &
Особиста оцінка: 0 - не дивився


Срібний реліз (на рейтинг впливає 50% завантаженого)
 Трекер:    Зареєстрований   

Завантажити / скачати фільм українською



відео для новачків



 Зареєстрований:   2019-06-06 02:08
 Розмір:   6.82 GB 
 Оцінка фільму:   10/10 (Голосів: 2)
   
Ваш часовий пояс: GMT + 2 Години

Нова тема   Відповісти